Friday, 22.09.2017, 13:30
Welcome Guest | RSS
Main
Registration
Login




Vinyl [7]
Alternative [103]
Jazz [26]
Classic rock [179]
Classical [9]
Hard & Heavy [60]
Mainstream [53]
Hip-Hop [3]
Meditative [11]
New Beats [8]
Progressive [38]
Roots [25]
OST, Campilation [28]
DTS Releases [4]
Dvd Rip [7]
DVD [7]
Lossless HTTP [54]

Rate my site
Total of answers: 17


Total online: 1
Guests: 1
Users: 0

Login form

Main » 2010 » March » 19 » Prism - Beat Street (rem.,bonus.trx) (2001)
09:36
Prism - Beat Street (rem.,bonus.trx) (2001)

Rok / Year: 1982/2001
Rodzaj / Genre: hard/adult rock
Format: eac-ape
Extractor: eac 099
Codec: mac 4.01

Quote
Upon 1981's Small Change album, Prism fell apart. After the band brought in singer Henry Small to replace Ron Tabak, there were constant disagreements as to which route the group should take: a harder rock & roll one or one that was geared more toward radio pop. This led to a wholesale change within the lineup, and only Small was left when Beat Street was recorded in 1983. Even with Timothy B. Schmit helping out on vocals, Beat Street contains none of Prism's past arena rock charm or instrumental stamina. The tracks are watered-down attempts at playing pop/rock with lyrics that sound as if they've been written overnight. Without John Hall behind the keyboards or Tabak's singing, Prism just wasn't Prism anymore. Lackluster efforts like "Nightmare," "Wired," or "Dirty Mind" are muddled and stale; "Is He Better Than Me" tried to imitate the band's only Top 40 Billboard appearance of "Don't Let Him Know," but contains none of the hooks or the passion; and "Blue Collar" is a wannabe Bachman Turner Overdrive track. Beat Street was blatant evidence that Prism was on their last legs, and their breakup finally occurred after this album was released. Capitol released an Over 60 Minutes With Prism collection in 1988, but none of Beat Street's tracks made the cut.

01. Nightmare (D.Sigerson; H.Small; R. Zito) [0:04:29.63]
02. Beat Street (D.Sigerson; H.Small; R.Zito) [0:04:21.56]
03. Dirty Mind (1) (D.Sigerson; H.Small; R.Zito) [0:03:36.46]
04. Modern Times (1) (D.Sigerson; H.Small; R.Zito) [0:03:59.09]
05. Is He Better Than Me? (1) (D.Sigerson; H.Small; R.Zito) [0:03:21.52]
06. Blue Collar (D.Sigerson; H.Small; R.Zito) [0:03:18.21]
07. Wired (D.Sigerson; H.Small; R.Zito) [0:03:52.36]
08. State of the Heart (1) (D.Sigerson; H.Small; R.Zito) [0:03:14.26]
09. I Don't Want to Want You Anymore (H.Small; R.Zito [0:04:20.31]
10. Fine (Jamie Leigh) [0:04:07.31]
11. We Gotta Get Outta Here (Patterson, Ian H) [0:04:17.61]
12. Don't Count Me Out (Bryan Adams; G.F.Wanstall; W.K.McColl) [0:03:36.56]
13. Modern Times (2) (D.Sigerson; H.Small; R.Zito) [0:05:27.56]
14. Dirty Mind (2) (D.Sigerson; H.Small; R.Zito) [0:03:34.02]
15. Breakin' Away (Henry Small) [0:03:32.43]
16. Japanese Girl (Andrew Racheck; Herbert Erstein) [0:04:35.06]
17. State of the Heart (2) (D.Sigerson; H.Small; R.Zito) [0:03:05.24]
18. Is He Better Than Me? (2) (D.Sigerson; H.Small; R.Zito) [0:03:21.22]

Code

Exact Audio Copy V0.99 prebeta 3 from 28. July 2007

EAC extraction logfile from 4. August 2008, 19:50

Prism / Beat Street

Used drive  : Optiarc DVD RW AD-7170A   Adapter: 1  ID: 0

Read mode               : Secure
Utilize accurate stream : Yes
Defeat audio cache      : Yes
Make use of C2 pointers : No

Read offset correction                      : 48
Overread into Lead-In and Lead-Out          : No
Fill up missing offset samples with silence : Yes
Delete leading and trailing silent blocks   : No
Null samples used in CRC calculations       : Yes
Used interface                    : Installed external ASPI interface

Used output format : Internal WAV Routines
Sample format      : 44.100 Hz; 16 Bit; Stereo

TOC of the extracted CD

       Track |   Start  |  Length  | Start sector | End sector   
      ---------------------------------------------------------
          1  |  0:00.00 |  4:29.63 |         0    |    20237     
          2  |  4:29.63 |  4:21.56 |     20238    |    39868     
          3  |  8:51.44 |  3:36.46 |     39869    |    56114     
          4  | 12:28.15 |  3:59.09 |     56115    |    74048     
          5  | 16:27.24 |  3:21.52 |     74049    |    89175     
          6  | 19:49.01 |  3:18.21 |     89176    |   104046     
          7  | 23:07.22 |  3:52.36 |    104047    |   121482     
          8  | 26:59.58 |  3:14.26 |    121483    |   136058     
          9  | 30:14.09 |  4:20.31 |    136059    |   155589     
         10  | 34:34.40 |  4:07.31 |    155590    |   174145     
         11  | 38:41.71 |  4:17.61 |    174146    |   193481     
         12  | 42:59.57 |  3:36.56 |    193482    |   209737     
         13  | 46:36.38 |  5:27.56 |    209738    |   234318     
         14  | 52:04.19 |  3:34.02 |    234319    |   250370     
         15  | 55:38.21 |  3:32.43 |    250371    |   266313     
         16  | 59:10.64 |  4:35.06 |    266314    |   286944     
         17  | 63:45.70 |  3:05.24 |    286945    |   300843     
         18  | 66:51.19 |  3:21.22 |    300844    |   315940     

Range status and errors

Selected range

       Filename C:\Prism - Beat Street.rem.bonus.trx.by.rat.eac.ape.covers.Israel-club.my1.ru\Prism - Beat Street.rem.bonus.trx.by.rat.eac.ape.covers.Israel-club.my1.ru.wav

       Peak level 99.1 %
       Range quality 99.9 %
       Copy CRC BE394A4E
       Copy OK

No errors occurred

     
AccurateRip summary
     
Track  1  not present in database
Track  2  not present in database
Track  3  not present in database
Track  4  not present in database
Track  5  not present in database
Track  6  not present in database
Track  7  not present in database
Track  8  not present in database
Track  9  not present in database
Track 10  not present in database
Track 11  not present in database
Track 12  not present in database
Track 13  not present in database
Track 14  not present in database
Track 15  not present in database
Track 16  not present in database
Track 17  not present in database
Track 18  not present in database
     
None of the tracks are present in the AccurateRip database

End of status report

My WebPage

Category: Classic rock | Views: 346 | Added by: Rat | Rating: 0.0/0
Total comments: 0
Only registered users can add comments.
[ Registration | Login ]

«  March 2010  »
SuMoTuWeThFrSa
 123456
78910111213
14151617181920
21222324252627
28293031


  • Israel-club.my1.ru


  • Copyright MyCorp © 2017