Thursday, 14.12.2017, 02:27
Welcome Guest | RSS
Main
Registration
Login




Vinyl [7]
Alternative [103]
Jazz [26]
Classic rock [179]
Classical [9]
Hard & Heavy [60]
Mainstream [53]
Hip-Hop [3]
Meditative [11]
New Beats [8]
Progressive [38]
Roots [25]
OST, Campilation [28]
DTS Releases [4]
Dvd Rip [7]
DVD [7]
Lossless HTTP [54]

Rate my site
Total of answers: 17


Total online: 1
Guests: 1
Users: 0

Login form

Main » 2010 » April » 19 » Phillip Boa And The Voodooclub - Copperfield (1988/2006)
20:35
Phillip Boa And The Voodooclub - Copperfield (1988/2006)

Genre: post punk/alternative
Year: 1988
Format : EAC_APE
Codec: ape 4.1
Ripper:rat24

Quote
In 1985, he founded the Independent band Phillip Boa & The Voodooclub. With their album Hair and the single Container Love, they experienced a commercial breakthrough and international recognition in 1989.

Boa's music is influenced by British punk rock and New Wave, its style swings between pop and avantgarde. A continuous charasteric are the catchy and melodic choruses, interrupted or alienated by atmospheric shifts. Thereby the voice of band member Pia Lund and Boa's own throaty singing contrast diametrically. After his most successful album so far, Boaphenia (1993), Boa made a deliberate musical cut to focus on a Metal project. Boa founded the Heavy metal band Voodoocult, consisting of members Dave Lombardo (drums), Chuck Schuldiner (guitar), Waldemar Sorychta (guitar), Mille Petrozza (guitar) and himself as vocalist.

The autumn of 2006 saw Boa and his Voodooclub start their Remastered tour. They consequently only played songs from the three re-published albums Copperfield, Hair and Hispañola. Moreover, since 2001, they play two or three annual Christmas concerts at the Leipzig Moritzbastei fortress. On 3 August 2007, the album Faking to Blend In was released on Motor Music.

01. Monochrome Monday [0:04:08.61]
02. Hyena [0:03:28.36]
03. Crash, Crack [0:04:30.41]
04. Lunatics over Brighton [0:04:44.67]
05. Andy W. [0:04:16.56]
06. Laugh, Planet [0:04:43.01]
07. Scotland Yard [0:03:45.71]
08. Kill Your Ideals [0:03:58.17]
09. Lying in the Green Grass [0:03:53.39]
10. Revolution, Bebe [0:04:01.64]
11. Only on Sunday [0:04:10.18]
12. Black-Crosser [0:03:11.05]
13. Soul on Ice [0:04:36.53]
14. Rise & Fall of Piggly Wiggly [0:03:45.51]
15. Moon [0:05:27.40]
16. Hell [0:03:34.70]

Code

Exact Audio Copy V0.99 prebeta 4 from 23. January 2008

EAC extraction logfile from 18. April 2010, 5:39

Phillip Boa And The Voodooclub / Copperfield

Used drive  : Optiarc DVD RW AD-7170A   Adapter: 3  ID: 0

Read mode               : Secure
Utilize accurate stream : Yes
Defeat audio cache      : Yes
Make use of C2 pointers : No

Read offset correction                      : 48
Overread into Lead-In and Lead-Out          : No
Fill up missing offset samples with silence : Yes
Delete leading and trailing silent blocks   : No
Null samples used in CRC calculations       : Yes
Used interface                    : Installed external ASPI interface

Used output format : Internal WAV Routines
Sample format      : 44.100 Hz; 16 Bit; Stereo

TOC of the extracted CD

      Track |   Start  |  Length  | Start sector | End sector  
     ---------------------------------------------------------
         1  |  0:00.00 |  4:08.61 |         0    |    18660    
         2  |  4:08.61 |  3:28.36 |     18661    |    34296    
         3  |  7:37.22 |  4:30.41 |     34297    |    54587    
         4  | 12:07.63 |  4:44.67 |     54588    |    75954    
         5  | 16:52.55 |  4:16.56 |     75955    |    95210    
         6  | 21:09.36 |  4:43.01 |     95211    |   116436    
         7  | 25:52.37 |  3:45.71 |    116437    |   133382    
         8  | 29:38.33 |  3:58.17 |    133383    |   151249    
         9  | 33:36.50 |  3:53.39 |    151250    |   168763    
        10  | 37:30.14 |  4:01.64 |    168764    |   186902    
        11  | 41:32.03 |  4:10.18 |    186903    |   205670    
        12  | 45:42.21 |  3:11.05 |    205671    |   220000    
        13  | 48:53.26 |  4:36.53 |    220001    |   240753    
        14  | 53:30.04 |  3:45.51 |    240754    |   257679    
        15  | 57:15.55 |  5:27.40 |    257680    |   282244    
        16  | 62:43.20 |  3:34.70 |    282245    |   298364    

Range status and errors

Selected range

      Filename C:\Documents and Settings\Мои документы\Phillip Boa And The Voodooclub - Copperfield.covers.ape.by.rat.Lossless-muz.ucoz.com\Phillip Boa And The Voodooclub - Copperfield.covers.ape.by.rat.Lossless-muz.ucoz.wav

      Peak level 97.4 %
      Range quality 99.9 %
      Copy CRC F62DF7C1
      Copy OK

No errors occurred

End of status report

download
Category: Alternative | Views: 474 | Added by: Rat | Rating: 5.0/1
Total comments: 0
Only registered users can add comments.
[ Registration | Login ]

«  April 2010  »
SuMoTuWeThFrSa
    123
45678910
11121314151617
18192021222324
252627282930


  • Israel-club.my1.ru


  • Copyright MyCorp © 2017