Friday, 23.06.2017, 03:54
Welcome Guest | RSS
Main
Registration
Login




Vinyl [7]
Alternative [103]
Jazz [26]
Classic rock [179]
Classical [9]
Hard & Heavy [60]
Mainstream [53]
Hip-Hop [3]
Meditative [11]
New Beats [8]
Progressive [38]
Roots [25]
OST, Campilation [28]
DTS Releases [4]
Dvd Rip [7]
DVD [7]
Lossless HTTP [54]

Rate my site
Total of answers: 17


Total online: 1
Guests: 1
Users: 0

Login form

Main » 2012 » February » 1 » Peter Sinfield - Stillusion (1973/93)
23:27
Peter Sinfield - Stillusion (1973/93)
 

Artist: Peter Sinfield 
Album: Stillusion 
Released: 1993 
Source: Manticore # bp152cd 
Genre: Prog/art Rock 
Format: eac/ape/covers 

Quote
Originally entitled Still, this recording was essentially a sequel to the King Crimson album Islands, and makes an important addition to any serious Crimson collection. Sinfield takes one more bite of an orchestra-and-Mellotron-flavored apple that Crimson itself declined to try, and the results are close to the Islands-era band. Sinfield reveals himself a pleasant if breathy singer, and a capable guitarist, but the real center of this album are the lyrics ("I need to suck the breasts of time and freeze her milk in ink" beats out anything Keith Reid ever wrote for sheer surrealism) and the elegant arrangements. No Crimson album ever had room for an extended English horn solo like the one here. Greg Lake runs rings around Sinfield as a singer on "Wholefood Boogie." In addition to the previously unreleased opening track, "Can You Forgive A Fool," the highlights include the jazzy "Night People," the haunting country-flavored "Will It Be You," and the Vivaldi-derived "Song of the Sea Goat."


01. Can You Forgive A Fool [0:04:20.57] 
02. The Night People [0:07:56.00] 
03. Will It Be You [0:02:42.23] 
04. Hanging Fire [0:03:04.07] 
05. A House Of Hopes & Dreams [0:03:57.55] 
06. Wholefood Boogie [0:03:40.70] 
07. The Piper [0:02:51.45] 
08. Under The Sky [0:04:24.13] 
09. Envelopes Of Yesterday [0:06:19.20] 
10. The Song Of The Sea Goat [0:06:08.42] 
11. Still [0:04:45.73] 

Code
Exact Audio Copy V0.99 prebeta 3 from 28. July 2007 
   
EAC extraction logfile from 4. September 2007, 8:51 
   
Peter  Sinfield / Stillusion 
   
Used drive  : TSSTcorpCD/DVDW SH-W162L   Adapter: 1  ID: 1 
   
Read mode               : Secure 
Utilize accurate stream : Yes 
Defeat audio cache      : Yes 
Make use of C2 pointers : No 
   
Combined read/write offset correction       : 0 
Overread into Lead-In and Lead-Out          : No 
Fill up missing offset samples with silence : Yes 
Delete leading and trailing silent blocks   : No 
Null samples used in CRC calculations       : No 
Used interface                    : Installed external ASPI interface 
   
Used output format : Internal WAV Routines 
Sample format      : 44.100 Hz; 16 Bit; Stereo 
   
   
TOC of the extracted CD 
   
      Track |   Start  |  Length  | Start sector | End sector  
     --------------------------------------------------------- 
         1  |  0:00.00 |  4:20.57 |         0    |    19556    
         2  |  4:20.57 |  7:56.00 |     19557    |    55256    
         3  | 12:16.57 |  2:42.23 |     55257    |    67429    
         4  | 14:59.05 |  3:04.07 |     67430    |    81236    
         5  | 18:03.12 |  3:57.55 |     81237    |    99066    
         6  | 22:00.67 |  3:40.70 |     99067    |   115636    
         7  | 25:41.62 |  2:51.45 |    115637    |   128506    
         8  | 28:33.32 |  4:24.13 |    128507    |   148319    
         9  | 32:57.45 |  6:19.20 |    148320    |   176764    
        10  | 39:16.65 |  6:08.42 |    176765    |   204406    
        11  | 45:25.32 |  4:45.73 |    204407    |   225854    
   
   
Range status and errors 
   
Selected range 
   
      Filename C:\Peter  Sinfield - Stillusion.by.rat.eac-ape.covers\Peter  Sinfield - Stillusion.wav 
   
      Peak level 99.0 % 
      Range quality 100.0 % 
      Copy CRC 899996F7 
      Copy OK 
   
No errors occurred 
   
End of status report


download
Category: Progressive | Views: 635 | Added by: Rat | Rating: 0.0/0
Total comments: 0
Only registered users can add comments.
[ Registration | Login ]

«  February 2012  »
SuMoTuWeThFrSa
   1234
567891011
12131415161718
19202122232425
26272829


  • Israel-club.my1.ru


  • Copyright MyCorp © 2017