Tuesday, 27.06.2017, 16:06
Welcome Guest | RSS
Main
Registration
Login




Vinyl [7]
Alternative [103]
Jazz [26]
Classic rock [179]
Classical [9]
Hard & Heavy [60]
Mainstream [53]
Hip-Hop [3]
Meditative [11]
New Beats [8]
Progressive [38]
Roots [25]
OST, Campilation [28]
DTS Releases [4]
Dvd Rip [7]
DVD [7]
Lossless HTTP [54]

Rate my site
Total of answers: 17


Total online: 1
Guests: 1
Users: 0

Login form

Main » 2010 » February » 12 » Oz Noy - Fuzzy (2007)
22:11
Oz Noy - Fuzzy (2007)

Artist: Oz Noy
Album: Fuzzy
Released: 2007
Source: Magnatude Records
Genre: Progressive Jazz
Format: eac-ape.covers

Quote
Israeli-born guitarist Oz Noy is a progressive and iconoclastic artist who incorporates a wide array of styles into his own work, including funk, rock, blues, and jazz. Having performed from a young age, Noy was an in-demand studio musician by his early twenties. A move to New York City in 1996 eventually led to tours and session work with such artists as Chris Botti, Toni Braxton, Jeff "Tain" Watts, and others. Noy released his own album Ha! in 2005, followed by the live album Oz Live a year later.


01. 01 Which Way Is Up ! [0:07:58.21]
02. 02 Cosmic Background [0:06:57.04]
03. 03 Fuzzy [0:07:08.57]
04. 04 Three Wishes [0:07:35.11]
05. 05 EpistroFunk [0:07:20.65]
06. 06 Intensity [0:06:33.21]
07. 07 Sometimes It Snows In April [0:06:33.70]
08. 08 Yeah, Yeah, Yeah [0:04:54.40]
09. 09 In A Simple Way [0:07:43.58]
10. 10 Evidence [0:04:37.63]

Code
Exact Audio Copy V0.99 prebeta 3 from 28. July 2007

EAC extraction logfile from 1. June 2008, 17:44

Oz Noy / Fuzzy

Used drive  : Optiarc DVD RW AD-7170A   Adapter: 1  ID: 0

Read mode               : Secure
Utilize accurate stream : Yes
Defeat audio cache      : Yes
Make use of C2 pointers : No

Read offset correction                      : 48
Overread into Lead-In and Lead-Out          : No
Fill up missing offset samples with silence : Yes
Delete leading and trailing silent blocks   : No
Null samples used in CRC calculations       : Yes
Used interface                    : Installed external ASPI interface

Used output format : Internal WAV Routines
Sample format      : 44.100 Hz; 16 Bit; Stereo

TOC of the extracted CD

       Track |   Start  |  Length  | Start sector | End sector   
      ---------------------------------------------------------
          1  |  0:00.00 |  7:58.21 |         0    |    35870     
          2  |  7:58.21 |  6:57.04 |     35871    |    67149     
          3  | 14:55.25 |  7:08.57 |     67150    |    99306     
          4  | 22:04.07 |  7:35.11 |     99307    |   133442     
          5  | 29:39.18 |  7:20.65 |    133443    |   166507     
          6  | 37:00.08 |  6:33.21 |    166508    |   196003     
          7  | 43:33.29 |  6:33.70 |    196004    |   225548     
          8  | 50:07.24 |  4:54.40 |    225549    |   247638     
          9  | 55:01.64 |  7:43.58 |    247639    |   282421     
         10  | 62:45.47 |  4:37.63 |    282422    |   303259     

Range status and errors

Selected range

       Filename C:\Oz.Noy.-.Fuzzy.by.rat.eac.ape.covers.Israel-club.my1.ru\Oz.Noy.-.Fuzzy.by.rat.eac.ape.covers.Israel-club.my1.ru.wav

       Peak level 100.0 %
       Range quality 100.0 %
       Copy CRC E8D17E7F
       Copy OK

No errors occurred

End of status report

My WebPage

Category: Jazz | Views: 562 | Added by: Rat | Rating: 0.0/0
Total comments: 0
Only registered users can add comments.
[ Registration | Login ]

«  February 2010  »
SuMoTuWeThFrSa
 123456
78910111213
14151617181920
21222324252627
28


  • Israel-club.my1.ru


  • Copyright MyCorp © 2017