Thursday, 14.12.2017, 02:14
Welcome Guest | RSS
Main
Registration
Login




Vinyl [7]
Alternative [103]
Jazz [26]
Classic rock [179]
Classical [9]
Hard & Heavy [60]
Mainstream [53]
Hip-Hop [3]
Meditative [11]
New Beats [8]
Progressive [38]
Roots [25]
OST, Campilation [28]
DTS Releases [4]
Dvd Rip [7]
DVD [7]
Lossless HTTP [54]

Rate my site
Total of answers: 17


Total online: 1
Guests: 1
Users: 0

Login form

Main » 2012 » February » 2 » Olivia Newton-John - In Concert (1982)
23:00
Olivia Newton-John - In Concert (1982)
 

Artist: Olivia Newton-John 
Album: In Concert 
Released: 1982 
Genre: pop/disco 
Format: eac-ape.covers 


Quote
Olivia Newton-John skillfully made the transition from popular country-pop singer to popular mainstream soft rock singer, becoming one of the most successful vocalists of the '70s in the process. The transition itself wasn't much of a stretch -- her early-'70s hits "I Honestly Love You" and "Have You Never Been Mellow" were country only in the loosest sense -- yet the extent of her success in both fields was remarkable. As a country singer, her first five charting singles all went Top Ten in the U.S.; as a pop singer, she had no less than 15 Top Ten hits, including five number one singles, highlighted by "Physical," which spent ten weeks at number one in 1981-1982. Newton-John's sweet voice suited both country-pop and soft rock perfectly, which is what kept her at the top of the charts until the mid-'80s. After 1984, she was no longer able to reach the Top 40, partially because of shifting musical tastes and partially because she was unable to successfully record sexy dance-pop, no matter how hard she tried. Nevertheless, her '70s and '80s hits remained soft rock and adult contemporary staples into the '90s, when she was no longer recording frequently.


01. Deeper Than The Night [0:03:15.33] 
02. Let Me Be There [0:02:46.67] 
03. Please Mister Please [0:02:55.52] 
04. If You Love Me, Let Me Know [0:02:04.02] 
05. Jolene [0:03:08.51] 
06. Sam [0:03:40.60] 
07. Xanadu [0:03:13.38] 
08. Magic [0:05:36.69] 
09. Suddenly [0:04:03.28] 
10. A Little More Love [0:02:59.40] 
11. Silvery Rain [0:03:45.58] 
12. Falling [0:03:32.12] 
13. Heart Attack [0:02:59.38] 
14. Make A Move On Me [0:03:13.50] 
15. Hopelessly Devoted To You [0:03:00.20] 
16. You're The One That I Want [0:04:15.73] 
17. Physical [0:05:17.03] 
18. Physical (Chorus) [0:01:30.66] 
19. I Honestly Love You [0:03:29.70] 
20. Final [0:01:41.01]
 

Code
Exact Audio Copy V0.99 prebeta 3 from 28. July 2007 

EAC extraction logfile from 3. June 2008, 19:09 

Olivia Newton-John / In Concert October 12-13_1982 Weber State College_Utah_USA 

Used drive  : Optiarc DVD RW AD-7170A   Adapter: 1  ID: 0 

Read mode               : Secure 
Utilize accurate stream : Yes 
Defeat audio cache      : Yes 
Make use of C2 pointers : No 

Read offset correction                      : 48 
Overread into Lead-In and Lead-Out          : No 
Fill up missing offset samples with silence : Yes 
Delete leading and trailing silent blocks   : No 
Null samples used in CRC calculations       : Yes 
Used interface                    : Installed external ASPI interface 

Used output format : Internal WAV Routines 
Sample format      : 44.100 Hz; 16 Bit; Stereo 

TOC of the extracted CD 

       Track |   Start  |  Length  | Start sector | End sector   
      --------------------------------------------------------- 
          1  |  0:00.00 |  3:15.33 |         0    |    14657     
          2  |  3:15.33 |  2:46.67 |     14658    |    27174     
          3  |  6:02.25 |  2:55.52 |     27175    |    40351     
          4  |  8:58.02 |  2:04.02 |     40352    |    49653     
          5  | 11:02.04 |  3:08.51 |     49654    |    63804     
          6  | 14:10.55 |  3:40.60 |     63805    |    80364     
          7  | 17:51.40 |  3:13.38 |     80365    |    94877     
          8  | 21:05.03 |  5:36.69 |     94878    |   120146     
          9  | 26:41.72 |  4:03.28 |    120147    |   138399     
         10  | 30:45.25 |  2:59.40 |    138400    |   151864     
         11  | 33:44.65 |  3:45.58 |    151865    |   168797     
         12  | 37:30.48 |  3:32.12 |    168798    |   184709     
         13  | 41:02.60 |  2:59.38 |    184710    |   198172     
         14  | 44:02.23 |  3:13.50 |    198173    |   212697     
         15  | 47:15.73 |  3:00.20 |    212698    |   226217     
         16  | 50:16.18 |  4:15.73 |    226218    |   245415     
         17  | 54:32.16 |  5:17.03 |    245416    |   269193     
         18  | 59:49.19 |  1:30.66 |    269194    |   276009     
         19  | 61:20.10 |  3:29.70 |    276010    |   291754     
         20  | 64:50.05 |  1:41.01 |    291755    |   299330     

Range status and errors 

Selected range 

       Filename C:\Olivi.Newton-John.-.In.Concert.October.1982.by.rat.eac.ape.Israel-club.my1.ru\Olivia Newton-John - In Concert October 12-13_1982 Weber State College_Utah_USA.wav 

       Peak level 98.4 % 
       Range quality 99.9 % 
       Copy CRC D3ED2FCC 
       Copy OK 

No errors occurred 

End of status report 


My WebPage
Category: Mainstream | Views: 344 | Added by: Rat | Rating: 0.0/0
Total comments: 0
Only registered users can add comments.
[ Registration | Login ]

«  February 2012  »
SuMoTuWeThFrSa
   1234
567891011
12131415161718
19202122232425
26272829


  • Israel-club.my1.ru


  • Copyright MyCorp © 2017