Sunday, 22.10.2017, 08:12
Welcome Guest | RSS
Main
Registration
Login




Vinyl [7]
Alternative [103]
Jazz [26]
Classic rock [179]
Classical [9]
Hard & Heavy [60]
Mainstream [53]
Hip-Hop [3]
Meditative [11]
New Beats [8]
Progressive [38]
Roots [25]
OST, Campilation [28]
DTS Releases [4]
Dvd Rip [7]
DVD [7]
Lossless HTTP [54]

Rate my site
Total of answers: 17


Total online: 1
Guests: 1
Users: 0

Login form

Main » 2012 » February » 1 » Olivia Newton-John - Back To Basics-The Essential Collection (1992)
22:48
Olivia Newton-John - Back To Basics-The Essential Collection (1992)
 

Artist: Olivia Newton-John 
Album: Back To Basics- The Essential Collection 
Released: 1992 
Genre: Pop,Disco 
Format: eac.ape 
Label: Mercury # 512 641-2
 

Quote
Back To Basics is a greatest hits album by Olivia Newton-John that was released in 1992; the first compilation to contain both her country and pop hits. The album was released with different track listings in different territories in order to feature her biggest hits in each region. 

Also released were four new tracks; including the singles 'I Need Love' and 'Deeper Than A River'. 

Although the album didn't chart highly in the U.S - it was a long-term big seller and was eventually certified Gold. The album was a bigger success in the U.K and Australia (where it was certified Platinum). 

A tour was planned to promote the album; but had to be cancelled when Newton-John was diagnosed with breast cancer


01. If Not For You [0:02:56.57] 
02. Banks Of The Ohio [0:03:18.58] 
03. What Is Life [0:03:27.30] 
04. Take Me Home Country Roads [0:03:20.52] 
05. I Honestly Love You [0:03:39.68] 
06. Have You Never Been Mellow [0:03:32.25] 
07. Sam [0:03:44.35] 
08. You're The One That I Want [0:02:50.05] 
09. Hopelessly Devoted To You [0:03:07.52] 
10. Summer Nights [0:03:37.35] 
11. A Little More Love [0:03:31.35] 
12. Xanadu [0:03:30.45] 
13. Magic [0:04:32.48] 
14. Suddenly [0:04:02.25] 
15. Physical [0:03:45.45] 
16. The Rumour [0:03:58.12] 
17. Not Gonna Be The One [0:03:07.35] 
18. I Need Love [0:04:16.08] 
19. I Want To Be Wanted [0:03:31.40] 
20. Deeper Than A River [0:04:19.72]
 

Code
Exact Audio Copy V0.99 prebeta 3 from 28. July 2007 

EAC extraction logfile from 15. September 2007, 9:03 

Olivia Newton-John / Back To Basics- The Essential Collection 

Used drive  : TSSTcorpCD/DVDW SH-W162L   Adapter: 1  ID: 1 

Read mode               : Secure 
Utilize accurate stream : Yes 
Defeat audio cache      : Yes 
Make use of C2 pointers : No 

Read offset correction                      : 6 
Overread into Lead-In and Lead-Out          : No 
Fill up missing offset samples with silence : Yes 
Delete leading and trailing silent blocks   : No 
Null samples used in CRC calculations       : Yes 
Used interface                    : Installed external ASPI interface 

Used output format : Internal WAV Routines 
Sample format      : 44.100 Hz; 16 Bit; Stereo 

TOC of the extracted CD 

        Track |   Start  |  Length  | Start sector | End sector    
       --------------------------------------------------------- 
           1  |  0:00.33 |  2:56.57 |        33    |    13289      
           2  |  2:57.15 |  3:18.58 |     13290    |    28197      
           3  |  6:15.73 |  3:27.30 |     28198    |    43752      
           4  |  9:43.28 |  3:20.52 |     43753    |    58804      
           5  | 13:04.05 |  3:39.68 |     58805    |    75297      
           6  | 16:43.73 |  3:32.25 |     75298    |    91222      
           7  | 20:16.23 |  3:44.35 |     91223    |   108057      
           8  | 24:00.58 |  2:50.05 |    108058    |   120812      
           9  | 26:50.63 |  3:07.52 |    120813    |   134889      
          10  | 29:58.40 |  3:37.35 |    134890    |   151199      
          11  | 33:36.00 |  3:31.35 |    151200    |   167059      
          12  | 37:07.35 |  3:30.45 |    167060    |   182854      
          13  | 40:38.05 |  4:32.48 |    182855    |   203302      
          14  | 45:10.53 |  4:02.25 |    203303    |   221477      
          15  | 49:13.03 |  3:45.45 |    221478    |   238397      
          16  | 52:58.48 |  3:58.12 |    238398    |   256259      
          17  | 56:56.60 |  3:07.35 |    256260    |   270319      
          18  | 60:04.20 |  4:16.08 |    270320    |   289527      
          19  | 64:20.28 |  3:31.40 |    289528    |   305392      
          20  | 67:51.68 |  4:19.72 |    305393    |   324889      

Range status and errors 

Selected range 

        Filename C:\Olivia Newton-John - Back To Basics- The Essential Collection.by.rat.eac-ape\Olivia Newton-John - Back To Basics- The Essential Collection.wav 

        Peak level 97.6 % 
        Range quality 99.9 % 
        Copy CRC EF5FBAF9 
        Copy OK 

No errors occurred 

End of status report 


Back To Basics
Category: Mainstream | Views: 333 | Added by: Rat | Rating: 0.0/0
Total comments: 0
Only registered users can add comments.
[ Registration | Login ]

«  February 2012  »
SuMoTuWeThFrSa
   1234
567891011
12131415161718
19202122232425
26272829


  • Israel-club.my1.ru


  • Copyright MyCorp © 2017