Monday, 21.08.2017, 17:58
Welcome Guest | RSS
Main
Registration
Login




Vinyl [7]
Alternative [103]
Jazz [26]
Classic rock [179]
Classical [9]
Hard & Heavy [60]
Mainstream [53]
Hip-Hop [3]
Meditative [11]
New Beats [8]
Progressive [38]
Roots [25]
OST, Campilation [28]
DTS Releases [4]
Dvd Rip [7]
DVD [7]
Lossless HTTP [54]

Rate my site
Total of answers: 17


Total online: 1
Guests: 1
Users: 0

Login form

Main » 2012 » March » 19 » Nitrogods - Nitrogods (2012)
11:15
Nitrogods - Nitrogods (2012)
 

Год: 2012 
Жанр: hard rock/ southern rock 
Продолжительность: 00:43:24 
Кодек: FLAC 
Битрейт: Lossless 
Тип битрейта: VBR
 

Quote
Дебютный альбом немецкого трио «Nitrogods», в состав которого входят бывшие участники таких известных немецких метал-групп, как Primal Fear, Sinner и Freedom Call и исполняющего превосходный драйвовый хард-н-хэви в сочетании с рок-н-роллом в духе «Motorhead».В качестве приглашенных гостей в записи двух композиций приняли участие гранды мирового рока — Dan McCafferty (Nazareth) и Fast Eddie Clarke (ex-Motorhead, Fastway). Очень классный!


Трек лист: 
01. Black Car Driving Man [0:02:59.62] 
02. Demolition Inc. [0:03:25.52] 
03. At Least I`m Drunk [0:04:00.29] 
04. Gasoline [0:03:06.43] 
05. Whiskey Wonderland [0:04:00.02] 
06. Licence To Play Loud [0:04:08.53] 
07. Lipsynch Stars [0:03:20.70] 
08. The Devil Dealt The Deck [0:04:01.24] 
09. Rifle Down [0:04:13.18] 
10. Riptide [0:03:30.05] 
11. Wasted In Berlin [0:02:30.35] 
12. Zombietrain [0:04:06.73] 

Code
Exact Audio Copy V1.0 beta 2 from 29. April 2011 

EAC extraction logfile from 18. March 2012, 8:50 

Nitrogods / Nitrogods 

Used drive  : HL-DT-STDVD-RAM GH22NP20   Adapter: 0  ID: 0 

Read mode               : Secure 
Utilize accurate stream : Yes 
Defeat audio cache      : Yes 
Make use of C2 pointers : No 

Read offset correction                      : 102 
Overread into Lead-In and Lead-Out          : No 
Fill up missing offset samples with silence : Yes 
Delete leading and trailing silent blocks   : No 
Null samples used in CRC calculations       : Yes 
Used interface                    : Installed external ASPI interface 

Used output format : Internal WAV Routines 
Sample format      : 44.100 Hz; 16 Bit; Stereo 

TOC of the extracted CD 

      Track |   Start  |  Length  | Start sector | End sector 
     --------------------------------------------------------- 
         1  |  0:00.00 |  2:59.62 |         0    |    13486 
         2  |  2:59.62 |  3:25.52 |     13487    |    28913 
         3  |  6:25.39 |  4:00.29 |     28914    |    46942 
         4  | 10:25.68 |  3:06.43 |     46943    |    60935 
         5  | 13:32.36 |  4:00.02 |     60936    |    78937 
         6  | 17:32.38 |  4:08.53 |     78938    |    97590 
         7  | 21:41.16 |  3:20.70 |     97591    |   112660 
         8  | 25:02.11 |  4:01.24 |    112661    |   130759 
         9  | 29:03.35 |  4:13.18 |    130760    |   149752 
        10  | 33:16.53 |  3:30.05 |    149753    |   165507 
        11  | 36:46.58 |  2:30.35 |    165508    |   176792 
        12  | 39:17.18 |  4:06.73 |    176793    |   195315 

Range status and errors 

Selected range 

      Filename K:\Documents and Settings\Мои документы\Nitrogods by rat\Nitrogods - Nitrogods.by.rat.flac.covers.wav 

      Peak level 98.8 % 
      Extraction speed 2.7 X 
      Range quality 99.9 % 
      Copy CRC 03D2C544 
      Copy OK 

No errors occurred 

AccurateRip summary 

Track  1  not present in database 
Track  2  not present in database 
Track  3  not present in database 
Track  4  not present in database 
Track  5  not present in database 
Track  6  not present in database 
Track  7  not present in database 
Track  8  not present in database 
Track  9  not present in database 
Track 10  not present in database 
Track 11  not present in database 
Track 12  not present in database 

None of the tracks are present in the AccurateRip database 

End of status report


download
Category: Hard & Heavy | Views: 328 | Added by: Rat | Rating: 0.0/0
Total comments: 0
Only registered users can add comments.
[ Registration | Login ]

«  March 2012  »
SuMoTuWeThFrSa
    123
45678910
11121314151617
18192021222324
25262728293031


  • Israel-club.my1.ru


  • Copyright MyCorp © 2017