Saturday, 21.10.2017, 18:01
Welcome Guest | RSS
Main
Registration
Login




Vinyl [7]
Alternative [103]
Jazz [26]
Classic rock [179]
Classical [9]
Hard & Heavy [60]
Mainstream [53]
Hip-Hop [3]
Meditative [11]
New Beats [8]
Progressive [38]
Roots [25]
OST, Campilation [28]
DTS Releases [4]
Dvd Rip [7]
DVD [7]
Lossless HTTP [54]

Rate my site
Total of answers: 17


Total online: 1
Guests: 1
Users: 0

Login form

Main » 2011 » January » 21 » Nick Kamen - Move Until We Fly (1990)
20:46
Nick Kamen - Move Until We Fly (1990)

Artist: Nick Kamen 
Album: Move Until We Fly 
Released: (1990) 
Genre: Pop 
Format: eac-ape

Quote
A new dance remix of his self-penned 1990 song, "I Promised Myself", and his biggest hit, was featured on a 2004 various artists collection in Europe and three years later, in 2007, the Spanish singer José Galisteo recorded his own version of the song. Kamen’s own version was the fourth highest played record in Europe in 1990 and reached No 1 in eight European countries. The song was also covered by the A-Teens, Dead Or Alive, and most recently Basshunter.

01. I Promised Myself [0:04:02.58] 
02. Oh How Happy [0:03:45.50] 
03. Looking Good Diving [0:03:54.30] 
04. Somebody's Arms To Hold Me [0:03:54.57] 
05. Um, Um, Um, Um, Um, Um [0:03:53.33] 
06. Take Back My Hand Child [0:04:54.10] 
07. We Can Make It [0:04:24.07] 
08. Agony And Ecstasy [0:04:00.38] 
09. You Are [0:04:02.42] 
10. I Want More [0:04:35.58] 
11. Move Until We Fly [0:06:41.72]

Code
Exact Audio Copy V0.99 prebeta 4 from 23. January 2008 

EAC extraction logfile from 19. January 2011, 18:04 

Nick Kamen / Move Until We Fly 

Used drive  : TSSTcorpCD/DVDW SH-W162L   Adapter: 3  ID: 1 

Read mode               : Secure 
Utilize accurate stream : Yes 
Defeat audio cache      : Yes 
Make use of C2 pointers : No 

Read offset correction                      : 6 
Overread into Lead-In and Lead-Out          : No 
Fill up missing offset samples with silence : Yes 
Delete leading and trailing silent blocks   : No 
Null samples used in CRC calculations       : Yes 
Used interface                    : Installed external ASPI interface 

Used output format : Internal WAV Routines 
Sample format      : 44.100 Hz; 16 Bit; Stereo 

TOC of the extracted CD 

      Track |   Start  |  Length  | Start sector | End sector  
     --------------------------------------------------------- 
         1  |  0:00.00 |  4:02.58 |         0    |    18207    
         2  |  4:02.58 |  3:45.50 |     18208    |    35132    
         3  |  7:48.33 |  3:54.30 |     35133    |    52712    
         4  | 11:42.63 |  3:54.57 |     52713    |    70319    
         5  | 15:37.45 |  3:53.33 |     70320    |    87827    
         6  | 19:31.03 |  4:54.10 |     87828    |   109887    
         7  | 24:25.13 |  4:24.07 |    109888    |   129694    
         8  | 28:49.20 |  4:00.38 |    129695    |   147732    
         9  | 32:49.58 |  4:02.42 |    147733    |   165924    
        10  | 36:52.25 |  4:35.58 |    165925    |   186607    
        11  | 41:28.08 |  6:41.72 |    186608    |   216754    

Range status and errors 

Selected range 

      Filename C:\Documents and Settings\Мои документы\Nick Kamen - Move Until We Fly.eac.ape.by.rat.lossless-muz.ucoz.com\Nick Kamen - Move Until We Fly.eac.ape.by.rat.lossless-muz.ucoz.wav 

      Peak level 99.9 % 
      Range quality 100.0 % 
      Copy CRC 23C61C8E 
      Copy OK 

No errors occurred 

End of status report

download 

Category: Mainstream | Views: 303 | Added by: Rat | Rating: 0.0/0
Total comments: 0
Only registered users can add comments.
[ Registration | Login ]

«  January 2011  »
SuMoTuWeThFrSa
      1
2345678
9101112131415
16171819202122
23242526272829
3031


  • Israel-club.my1.ru


  • Copyright MyCorp © 2017