Friday, 23.06.2017, 21:01
Welcome Guest | RSS
Main
Registration
Login




Vinyl [7]
Alternative [103]
Jazz [26]
Classic rock [179]
Classical [9]
Hard & Heavy [60]
Mainstream [53]
Hip-Hop [3]
Meditative [11]
New Beats [8]
Progressive [38]
Roots [25]
OST, Campilation [28]
DTS Releases [4]
Dvd Rip [7]
DVD [7]
Lossless HTTP [54]

Rate my site
Total of answers: 17


Total online: 1
Guests: 1
Users: 0

Login form

Main » 2010 » August » 10 » Nebula - Heavy Psych (2009)
20:45
Nebula - Heavy Psych (2009)

Artist: Nebula
Album: Heavy Psych
Released: 2009
Genre: prog,psychedelic, stoner
Format: eac/ape 282mb

Quote

This is a very well thought out 60s 70s style hard rock record.All songs are very cool and very heady.If your an older dude like I am and like the 60s 70s far out vibe.You might like this bands trip and where there coming from right now.I know I do.It's a great effort by Eddie Glass and the boys

01. Pulse [0:03:54.42]
02. The Dagger [0:03:37.36]
03. Aphrodite [0:04:09.72]
04. Dream Submarine [0:02:21.27]
05. In The Depths [0:03:52.50]
06. The Other Side [0:05:33.51]
07. Crown Of Thorns [0:03:00.03]
08. Lead Sky [0:03:01.32]
09. Little Yellow Pill [0:03:49.24]
10. Running of the Bulls [0:01:54.04]

Code
Exact Audio Copy V0.99 prebeta 4 from 23. January 2008

EAC extraction logfile from 9. August 2010, 10:48

Nebula / Heavy Psych

Used drive  : Optiarc DVD RW AD-7170A   Adapter: 3  ID: 0

Read mode               : Secure
Utilize accurate stream : Yes
Defeat audio cache      : Yes
Make use of C2 pointers : No

Read offset correction                      : 48
Overread into Lead-In and Lead-Out          : No
Fill up missing offset samples with silence : Yes
Delete leading and trailing silent blocks   : No
Null samples used in CRC calculations       : Yes
Used interface                    : Installed external ASPI interface

Used output format : Internal WAV Routines
Sample format      : 44.100 Hz; 16 Bit; Stereo

TOC of the extracted CD

      Track |   Start  |  Length  | Start sector | End sector  
     ---------------------------------------------------------
         1  |  0:00.00 |  3:54.42 |         0    |    17591    
         2  |  3:54.42 |  3:37.36 |     17592    |    33902    
         3  |  7:32.03 |  4:09.72 |     33903    |    52649    
         4  | 11:42.00 |  2:21.27 |     52650    |    63251    
         5  | 14:03.27 |  3:52.50 |     63252    |    80701    
         6  | 17:56.02 |  5:33.51 |     80702    |   105727    
         7  | 23:29.53 |  3:00.03 |    105728    |   119230    
         8  | 26:29.56 |  3:01.32 |    119231    |   132837    
         9  | 29:31.13 |  3:49.24 |    132838    |   150036    
        10  | 33:20.37 |  1:54.04 |    150037    |   158590    

Range status and errors

Selected range

      Filename C:\Documents and Settings\Мои документы\Nebula - Heavy Psych.ape.covers..by.rat.lossless-muz.ucoz.com\Nebula - Heavy Psych.ape.covers..by.rat.lossless-muz.ucoz.wav

      Peak level 100.0 %
      Range quality 100.0 %
      Copy CRC 86833DC2
      Copy OK

No errors occurred

End of status report

DOWNLOAD

Category: Progressive | Views: 272 | Added by: Rat | Rating: 0.0/0
Total comments: 0
Only registered users can add comments.
[ Registration | Login ]

«  August 2010  »
SuMoTuWeThFrSa
1234567
891011121314
15161718192021
22232425262728
293031


  • Israel-club.my1.ru


  • Copyright MyCorp © 2017