Saturday, 19.08.2017, 07:40
Welcome Guest | RSS
Main
Registration
Login




Vinyl [7]
Alternative [103]
Jazz [26]
Classic rock [179]
Classical [9]
Hard & Heavy [60]
Mainstream [53]
Hip-Hop [3]
Meditative [11]
New Beats [8]
Progressive [38]
Roots [25]
OST, Campilation [28]
DTS Releases [4]
Dvd Rip [7]
DVD [7]
Lossless HTTP [54]

Rate my site
Total of answers: 17


Total online: 1
Guests: 1
Users: 0

Login form

Main » 2010 » April » 3 » Nazareth - From The Vaults (1993)
20:35
Nazareth - From The Vaults (1993)

Artist: Nazareth
Album: From The Vaults
Released: 1993
Source: Sequel Records
Genre: hard/classic rock
Format: eac.ape.covers

Quote
A must for Nazareth fans ! Early material from their best albums.Hard rock titles such as: Railroad Boy,Friends,Down, If you see my baby, Hard Living,Greens and classics like : Love Hurts, My white bicycle plus live material. Great songs within this cd. Rare titles, B side singles. This is unpublished greatest hits, package or anthology, this is really stuff from the vaults...& very rare pearls!Enjoy !

01. Friends [0:03:26.60]
02. If You See My Baby [0:02:58.03]
03. Hard Living [0:03:02.22]
04. Spinning Top [0:03:11.55]
05. Love Hurts [0:03:53.43]
06. Down [0:03:54.05]
07. My White Bicycle [0:03:26.55]
08. Holy Roller [0:03:24.57]
09. Railroad Boy [0:04:08.13]
10. Youґre The Violin [0:03:31.60]
11. Good Love [0:03:51.60]
12. Greens [0:02:51.07]
13. Desolation Road [0:02:58.68]
14. Hearts Grown Cold (Live) [0:03:57.55]
15. Razamanaz (Live) [0:04:19.22]
16. Hair Of The Dog (Live) [0:04:45.28]
17. Talkinґ To One Of The Boys (Live) [0:04:44.40]
18. Morning Dew [0:03:56.45]
19. Juicy Lucy [0:04:16.10]
20. On The Run [0:03:22.47]

Code
Exact Audio Copy V0.99 prebeta 3 from 28. July 2007

EAC extraction logfile from 13. October 2007, 21:21

Nazareth / From The Vaults

Used drive  : Optiarc DVD RW AD-7170A   Adapter: 1  ID: 0

Read mode               : Secure
Utilize accurate stream : Yes
Defeat audio cache      : Yes
Make use of C2 pointers : No

Read offset correction                      : 48
Overread into Lead-In and Lead-Out          : No
Fill up missing offset samples with silence : Yes
Delete leading and trailing silent blocks   : No
Null samples used in CRC calculations       : Yes
Used interface                    : Installed external ASPI interface

Used output format : Internal WAV Routines
Sample format      : 44.100 Hz; 16 Bit; Stereo

TOC of the extracted CD

        Track |   Start  |  Length  | Start sector | End sector    
       ---------------------------------------------------------
           1  |  0:00.32 |  3:26.60 |        32    |    15541      
           2  |  3:27.17 |  2:58.03 |     15542    |    28894      
           3  |  6:25.20 |  3:02.22 |     28895    |    42566      
           4  |  9:27.42 |  3:11.55 |     42567    |    56946      
           5  | 12:39.22 |  3:53.43 |     56947    |    74464      
           6  | 16:32.65 |  3:54.05 |     74465    |    92019      
           7  | 20:26.70 |  3:26.55 |     92020    |   107524      
           8  | 23:53.50 |  3:24.57 |    107525    |   122881      
           9  | 27:18.32 |  4:08.13 |    122882    |   141494      
          10  | 31:26.45 |  3:31.60 |    141495    |   157379      
          11  | 34:58.30 |  3:51.60 |    157380    |   174764      
          12  | 38:50.15 |  2:51.07 |    174765    |   187596      
          13  | 41:41.22 |  2:58.68 |    187597    |   201014      
          14  | 44:40.15 |  3:57.55 |    201015    |   218844      
          15  | 48:37.70 |  4:19.22 |    218845    |   238291      
          16  | 52:57.17 |  4:45.28 |    238292    |   259694      
          17  | 57:42.45 |  4:44.40 |    259695    |   281034      
          18  | 62:27.10 |  3:56.45 |    281035    |   298779      
          19  | 66:23.55 |  4:16.10 |    298780    |   317989      
          20  | 70:39.65 |  3:22.47 |    317990    |   333186      

Range status and errors

Selected range

        Filename C:\Nazareth - From The Vaults.BY.RAT.EAC-APE.HQcovers.israel-club.my1.ru\Nazareth - From The Vaults.BY.RAT.EAC-APE.HQcovers.israel-club.my1.ru.wav

        Peak level 94.5 %
        Range quality 99.9 %
        Copy CRC 71C54E44
        Copy OK

No errors occurred

End of status report

DOWNLOAD

Category: Classic rock | Views: 301 | Added by: Rat | Rating: 5.0/1
Total comments: 0
Only registered users can add comments.
[ Registration | Login ]

«  April 2010  »
SuMoTuWeThFrSa
    123
45678910
11121314151617
18192021222324
252627282930


  • Israel-club.my1.ru


  • Copyright MyCorp © 2017