Thursday, 14.12.2017, 02:32
Welcome Guest | RSS
Main
Registration
Login




Vinyl [7]
Alternative [103]
Jazz [26]
Classic rock [179]
Classical [9]
Hard & Heavy [60]
Mainstream [53]
Hip-Hop [3]
Meditative [11]
New Beats [8]
Progressive [38]
Roots [25]
OST, Campilation [28]
DTS Releases [4]
Dvd Rip [7]
DVD [7]
Lossless HTTP [54]

Rate my site
Total of answers: 17


Total online: 1
Guests: 1
Users: 0

Login form

Main » 2010 » February » 21 » Nazareth - Close Enough For Rock 'n' Roll (rem.bonus)(1976)
18:30
Nazareth - Close Enough For Rock 'n' Roll (rem.bonus)(1976)


Artist: Nazareth
Album: Close Enough For Rock 'n' Roll
Released: 1976
Source: Castle records
Genre: Hard?classic Rock
Format: Eac/ape/covers

Quote
After cornering the hard rock market in 1975 with the international success of Hair of the Dog, Nazareth surprised fans and listeners alike the next year when they traded that style for a softer, more AOR approach on Close Enough for Rock & Roll. The resulting album isn't as successful as their previous one, but is a tuneful affair that offers plenty of highlights for the Nazareth fan. This time out, they go for an across-the-board experimental approach that covers everything from their traditional hard rock to country-rock and even straight pop tunes. The ultimate example of this experimentation is "Telegram," a four-part rock opera about life on tour for a rock band that starts as a frenzied rocker and ends a piano-led sing-along. Other strong tracks include "You're the Violin," a hard rocking love song that includes plenty of inventive guitar work to bring its music as love metaphors to life, and "Carry Out Feelings," a poppy love lament that successfully incorporates a reggae groove into the band's sound. Although hard rock is downplayed in general on this album, Close Enough for Rock & Roll does sport a few sharp rockers: "Born Under the Wrong Side" uses driving voice box guitar riffs to create a menacing atmosphere, and "Lift the Lid" is an effective slice of boogie rock. All in all, Close Enough for Rock & Roll is too unfocused to fully succeed as an album but offers solid tunes and the quality musicianship necessary to back them up. Casual fans may want to pick up the album's radio hits on a compilation, but this album is a worthwhile listen for the hardcore Nazareth addict.

01. Telegram Parts 1 - 4 [0:07:50.57]
02. Vicki [0:02:21.55]
03. Homesick Again [0:04:35.38]
04. Vancouver Shakedown [0:04:07.65]
05. Born Under The Wrong Sign [0:03:56.40]
06. Loretta [0:03:18.27]
07. Carry Out Feelings [0:03:19.18]
08. Lift The Lid [0:03:52.65]
09. You're The Violin [0:05:01.37]
10. Holy Roller (Single A-side) [0:03:24.03]
11. You're The Violin (Edited A-side) [0:03:35.42]
12. Carry Out Feelings (US Single Edit) [0:03:19.10]

Code
Exact Audio Copy V0.99 prebeta 3 from 28. July 2007

EAC extraction logfile from 6. January 2008, 8:59

Nazareth / Close Enough For Rock 'n' Roll

Used drive  : Optiarc DVD RW AD-7170A   Adapter: 1  ID: 0

Read mode               : Secure
Utilize accurate stream : Yes
Defeat audio cache      : Yes
Make use of C2 pointers : No

Read offset correction                      : 48
Overread into Lead-In and Lead-Out          : No
Fill up missing offset samples with silence : Yes
Delete leading and trailing silent blocks   : No
Null samples used in CRC calculations       : Yes
Used interface                    : Installed external ASPI interface

Used output format : Internal WAV Routines
Sample format      : 44.100 Hz; 16 Bit; Stereo

TOC of the extracted CD

         Track |   Start  |  Length  | Start sector | End sector     
        ---------------------------------------------------------
            1  |  0:00.00 |  7:50.57 |         0    |    35306       
            2  |  7:50.57 |  2:21.55 |     35307    |    45936       
            3  | 10:12.37 |  4:35.38 |     45937    |    66599       
            4  | 14:48.00 |  4:07.65 |     66600    |    85189       
            5  | 18:55.65 |  3:56.40 |     85190    |   102929       
            6  | 22:52.30 |  3:18.27 |    102930    |   117806       
            7  | 26:10.57 |  3:19.18 |    117807    |   132749       
            8  | 29:30.00 |  3:52.65 |    132750    |   150214       
            9  | 33:22.65 |  5:01.37 |    150215    |   172826       
           10  | 38:24.27 |  3:24.03 |    172827    |   188129       
           11  | 41:48.30 |  3:35.42 |    188130    |   204296       
           12  | 45:23.72 |  3:19.10 |    204297    |   219231       

Range status and errors

Selected range

         Filename C:\Nazareth - Close Enough For Rock 'n' Roll.by.rat.remastered.eac.ape.HQcovers.israel-club.my1.ru\Nazareth - Close Enough For Rock 'n' Roll.by.rat.remastered.eac.ape.HQcovers.israel-club.my1.ru.wav

         Peak level 97.9 %
         Range quality 99.9 %
         Copy CRC 97DC27F2
         Copy OK

No errors occurred

End of status report

DOWNLOAD

Category: Classic rock | Views: 312 | Added by: Rat | Rating: 0.0/0
Total comments: 0
Only registered users can add comments.
[ Registration | Login ]

«  February 2010  »
SuMoTuWeThFrSa
 123456
78910111213
14151617181920
21222324252627
28


  • Israel-club.my1.ru


  • Copyright MyCorp © 2017