Wednesday, 18.10.2017, 22:04
Welcome Guest | RSS
Main
Registration
Login




Vinyl [7]
Alternative [103]
Jazz [26]
Classic rock [179]
Classical [9]
Hard & Heavy [60]
Mainstream [53]
Hip-Hop [3]
Meditative [11]
New Beats [8]
Progressive [38]
Roots [25]
OST, Campilation [28]
DTS Releases [4]
Dvd Rip [7]
DVD [7]
Lossless HTTP [54]

Rate my site
Total of answers: 17


Total online: 1
Guests: 1
Users: 0

Login form

Main » 2010 » March » 29 » Mungo Jerry - Naked From The Heart (2007)
08:56
Mungo Jerry - Naked From The Heart (2007)

Artist - Mungo Jerry
Album - Naked From The Heart
Genre- glam rock
Year- 2007
format-eac/ape

Quote

Mungo Jerry is one of rock's great one-hit successes. Outside of England, they're known for exactly one song, but that song, "In the Summertime," is a seasonal anthem known by listeners who weren't even born when it was released. Mungo Jerry was a solid blues outfit as well -- in fact, one suspects they were the kind of blues band that purists Alexis Korner and Cyril Davies would have loved, had they ever intersected -- and knew how to get the most out of their jug band sound, which has helped them survive for three decades.

Motor biking
Ballad of a teenage queen
Make me happy
Come on baby
Hey gyp, dig the slowness
Play tha funkinг' music
Go to sleep
Hippty cat mama
Ten little woman
Everybody wants someone
Iг'm a liar
Iг've got my eye on you
Letг's go
We will never be allone
I walked everywhere
Staying at home
Staying at home (single version)

Code
Exact Audio Copy V0.99 prebeta 3 from 28. July 2007

EAC extraction logfile from 4. July 2008, 19:32

Mungo Jerry - / Naked From The Heart

Used drive  : TSSTcorpCD/DVDW SH-W162L   Adapter: 1  ID: 1

Read mode               : Secure
Utilize accurate stream : Yes
Defeat audio cache      : Yes
Make use of C2 pointers : No

Read offset correction                      : 6
Overread into Lead-In and Lead-Out          : No
Fill up missing offset samples with silence : Yes
Delete leading and trailing silent blocks   : No
Null samples used in CRC calculations       : Yes
Used interface                    : Installed external ASPI interface

Used output format : Internal WAV Routines
Sample format      : 44.100 Hz; 16 Bit; Stereo

TOC of the extracted CD

       Track |   Start  |  Length  | Start sector | End sector   
      ---------------------------------------------------------
          1  |  0:00.00 |  4:21.63 |         0    |    19637     
          2  |  4:21.63 |  2:57.52 |     19638    |    32964     
          3  |  7:19.40 |  4:16.73 |     32965    |    52237     
          4  | 11:36.38 |  3:18.06 |     52238    |    67093     
          5  | 14:54.44 |  3:31.03 |     67094    |    82921     
          6  | 18:25.47 |  3:24.73 |     82922    |    98294     
          7  | 21:50.45 |  3:53.29 |     98295    |   115798     
          8  | 25:43.74 |  2:19.59 |    115799    |   126282     
          9  | 28:03.58 |  3:05.47 |    126283    |   140204     
         10  | 31:09.30 |  4:58.49 |    140205    |   162603     
         11  | 36:08.04 |  3:20.20 |    162604    |   177623     
         12  | 39:28.24 |  5:03.31 |    177624    |   200379     
         13  | 44:31.55 |  3:42.44 |    200380    |   217073     
         14  | 48:14.24 |  4:02.62 |    217074    |   235285     
         15  | 52:17.11 |  2:00.17 |    235286    |   244302     
         16  | 54:17.28 |  2:53.46 |    244303    |   257323     
         17  | 57:10.74 |  3:19.60 |    257324    |   272308     

Range status and errors

Selected range

       Filename C:\Mungo.Jerry.-. Naked.From.The.Heart..by.rat.eac.ape.Israel-club.my1.ru\Mungo Jerry - - Naked From The Heart..by.rat.eac.ape.Israel-club.my1.ru.wav

       Peak level 100.0 %
       Range quality 99.9 %
       Copy CRC 585F9EEE
       Copy OK

No errors occurred

End of status report

My WebPage

Category: Classic rock | Views: 260 | Added by: Rat | Rating: 0.0/0
Total comments: 0
Only registered users can add comments.
[ Registration | Login ]

«  March 2010  »
SuMoTuWeThFrSa
 123456
78910111213
14151617181920
21222324252627
28293031


  • Israel-club.my1.ru


  • Copyright MyCorp © 2017