Thursday, 14.12.2017, 02:25
Welcome Guest | RSS
Main
Registration
Login




Vinyl [7]
Alternative [103]
Jazz [26]
Classic rock [179]
Classical [9]
Hard & Heavy [60]
Mainstream [53]
Hip-Hop [3]
Meditative [11]
New Beats [8]
Progressive [38]
Roots [25]
OST, Campilation [28]
DTS Releases [4]
Dvd Rip [7]
DVD [7]
Lossless HTTP [54]

Rate my site
Total of answers: 17


Total online: 1
Guests: 1
Users: 0

Login form

Main » 2010 » March » 19 » Mungo Jerry - Adults Only (2004)
08:25
Mungo Jerry - Adults Only (2004)

Artist: Mungo Jerry
Album: Adults Only
Year: 2004
Style: glam/Pop/Rock
Format: eac-ape


Quote
Adults Only is the first album recorded by Ray Dorset, also known as Mungo Jerry, with his German blues band. Some of the songs are blues standards that have been in his set for several years, others are new recordings of numbers from the Mungo back catalogue, including 'I Just Can't Say Goodbye', originally on the 1977 album 'Ray Dorset & Mungo Jerry', an extended version of 'Open Up', a worldwide hit for the band in 1972, recorded live in concert. Making its first appearance on record is Dorset's infectious yet uncompromising anti-war song, 'We Gotta Get Out o’ the Army'.

Ray Dorset – lead vocals, electric guitars, percussion; Michael Pohl – electric and acoustic guitars, percussion; Klaus Wenske – bass; Achim ‘Ako’ Patz – keyboards, blues harp; Klaus Otto – drums.

01.Statesbro’ Blues (McTell) – 4:21
02.Morning Dew (Rose) – 4:48
03.With A Girl Like You (Dorset) – 4:09
04.Goin’ Down Slow (trad. arr. Dorset) – 6:32
05One Bourbon, One Scotch & One Beer (Hooker, new arrangement and lyrics Dorset) – 4:05
06.I Can’t Wait Until Tomorrow (Dorset) – 5:35
07.She Loves Me Like A Woman (Dorset) – 5:35
08.We Gotta Get Out o’ the Army (Dorset) – 3:43
09.All I Wanna Do (Dorset) – 4:49
10.Rock Me Mama (trad. arr. Dorset) – 3:36
11.St Pete Florida Blues (trad. arr. Dorset) – 2:42
12.I Just Can’t Say Goodbye (Dorset) – 2:59
13.Open Up (Dorset) – live at the Vlotho Festival 9:39

Code

Exact Audio Copy V0.99 prebeta 3 from 28. July 2007

EAC extraction logfile from 22. September 2008, 21:12

Mungo Jerry / Adults Only

Used drive  : TSSTcorpCD/DVDW SH-W162L   Adapter: 1  ID: 1

Read mode               : Secure
Utilize accurate stream : Yes
Defeat audio cache      : Yes
Make use of C2 pointers : No

Read offset correction                      : 0
Overread into Lead-In and Lead-Out          : No
Fill up missing offset samples with silence : Yes
Delete leading and trailing silent blocks   : No
Null samples used in CRC calculations       : No
Used interface                    : Installed external ASPI interface

Used output format : Internal WAV Routines
Sample format      : 44.100 Hz; 16 Bit; Stereo

TOC of the extracted CD

       Track |   Start  |  Length  | Start sector | End sector   
      ---------------------------------------------------------
          1  |  0:00.00 |  4:21.36 |         0    |    19610     
          2  |  4:21.36 |  4:50.43 |     19611    |    41403     
          3  |  9:12.04 |  4:11.22 |     41404    |    60250     
          4  | 13:23.26 |  6:34.02 |     60251    |    89802     
          5  | 19:57.28 |  4:07.11 |     89803    |   108338     
          6  | 24:04.39 |  5:37.69 |    108339    |   133682     
          7  | 29:42.33 |  5:37.23 |    133683    |   158980     
          8  | 35:19.56 |  3:36.41 |    158981    |   175221     
          9  | 38:56.22 |  4:51.25 |    175222    |   197071     
         10  | 43:47.47 |  3:38.56 |    197072    |   213477     
         11  | 47:26.28 |  2:44.39 |    213478    |   225816     
         12  | 50:10.67 |  3:01.60 |    225817    |   239451     
         13  | 53:12.52 |  9:35.31 |    239452    |   282607     

Range status and errors

Selected range

       Filename C:\Mungo.Jerry.-.Adults.Only.by.rat.eac.ape.Israel-club.my1.ru\Mungo.Jerry.-.Adults.Only.by.rat.eac.ape.Israel-club.my1.ru.wav

       Peak level 100.0 %
       Range quality 100.0 %
       Copy CRC AED23D18
       Copy OK

No errors occurred

End of status report

My WebPage

Category: Classic rock | Views: 348 | Added by: Rat | Rating: 0.0/0
Total comments: 0
Only registered users can add comments.
[ Registration | Login ]

«  March 2010  »
SuMoTuWeThFrSa
 123456
78910111213
14151617181920
21222324252627
28293031


  • Israel-club.my1.ru


  • Copyright MyCorp © 2017