Monday, 26.06.2017, 19:21
Welcome Guest | RSS
Main
Registration
Login




Vinyl [7]
Alternative [103]
Jazz [26]
Classic rock [179]
Classical [9]
Hard & Heavy [60]
Mainstream [53]
Hip-Hop [3]
Meditative [11]
New Beats [8]
Progressive [38]
Roots [25]
OST, Campilation [28]
DTS Releases [4]
Dvd Rip [7]
DVD [7]
Lossless HTTP [54]

Rate my site
Total of answers: 17


Total online: 1
Guests: 1
Users: 0

Login form

Main » 2010 » March » 19 » Mudcrutch (Tom Petty) - Mudcrutch (2008)
08:31
Mudcrutch (Tom Petty) - Mudcrutch (2008)

Album:Mudcrutch
Artist: Mudcrutch
Source: reprise
Realease: 2008
Genre: rock
Quality: eac-ape-covers

Quote

Like many old rock & rollers, Tom Petty decided to get the band back together after taking a leisurely stroll through his back pages. Prompted by his Runnin' Down a Dream project -- a four-hour Peter Bogdanovich documentary supplemented by a coffee table book -- Petty began thinking about his first band, Mudcrutch, the Southern rock outfit he had before the Heartbreakers that featured Tom Leadon, brother of Eagle Bernie, on lead guitar. Formed in Florida in 1970, Mudcrutch ambled out to Los Angeles four years later but they fell apart not long afterward, never recording more than a handful of singles and demos, several of which -- including the original version of "Don't Do Me Like That" -- later surfaced on Petty's 1995 box, Playback. Mudcrutch morphed into the Heartbreakers not long after the breakup, retaining guitarist Mike Campbell and keyboardist Benmont Tench, who joined after Leadon's 1972 departure, and as Campbell and Tench remain Petty's lieutenants to this day, even appearing on his solo albums without the Heartbreakers, the question is why would he bother reuniting Mudcrutch when he's working with two-thirds of the same band?.

01. Shady Grove [0:03:58.61]
02. Scare Easy [0:04:35.61]
03. Orphan of the Storm [0:04:07.31]
04. Six Days on the Road [0:03:28.18]
05. Crystal River [0:09:29.25]
06. Oh Maria [0:03:43.33]
07. This Is a Good Street [0:01:54.31]
08. The Wrong Thing To Do [0:04:10.13]
09. Queen of the Go-Go Girls [0:03:42.53]
10. June Apple [0:02:25.74]
11. Lover of the Bayou [0:04:32.74]
12. Topanga Cowgirl [0:03:54.21]
13. Bootleg Flyer [0:03:48.47]
14. House of Stone [0:03:00.74]

Code
Exact Audio Copy V0.99 prebeta 3 from 28. July 2007

EAC extraction logfile from 5. October 2008, 21:40

Mudcrutch / "Mudcrutch"

Used drive  : Optiarc DVD RW AD-7170A   Adapter: 1  ID: 0

Read mode               : Secure
Utilize accurate stream : Yes
Defeat audio cache      : Yes
Make use of C2 pointers : No

Read offset correction                      : 48
Overread into Lead-In and Lead-Out          : No
Fill up missing offset samples with silence : Yes
Delete leading and trailing silent blocks   : No
Null samples used in CRC calculations       : Yes
Used interface                    : Installed external ASPI interface

Used output format : Internal WAV Routines
Sample format      : 44.100 Hz; 16 Bit; Stereo

TOC of the extracted CD

       Track |   Start  |  Length  | Start sector | End sector   
      ---------------------------------------------------------
          1  |  0:00.00 |  3:58.61 |         0    |    17910     
          2  |  3:58.61 |  4:35.61 |     17911    |    38596     
          3  |  8:34.47 |  4:07.31 |     38597    |    57152     
          4  | 12:42.03 |  3:28.18 |     57153    |    72770     
          5  | 16:10.21 |  9:29.25 |     72771    |   115470     
          6  | 25:39.46 |  3:43.33 |    115471    |   132228     
          7  | 29:23.04 |  1:54.31 |    132229    |   140809     
          8  | 31:17.35 |  4:10.13 |    140810    |   159572     
          9  | 35:27.48 |  3:42.53 |    159573    |   176275     
         10  | 39:10.26 |  2:25.74 |    176276    |   187224     
         11  | 41:36.25 |  4:32.74 |    187225    |   207698     
         12  | 46:09.24 |  3:54.21 |    207699    |   225269     
         13  | 50:03.45 |  3:48.47 |    225270    |   242416     
         14  | 53:52.17 |  3:00.74 |    242417    |   255990     

Range status and errors

Selected range

       Filename C:\Mudcrutch -  Mudcrutch.by.rat.eac.ape.covers.Israel-club.my1.ru\Mudcrutch -  Mudcrutch.by.rat.eac.ape.covers.Israel-club.my1.ru.wav

       Peak level 100.0 %
       Range quality 100.0 %
       Copy CRC C719DAE7
       Copy OK

No errors occurred

End of status report

Mudcrutch

Category: Classic rock | Views: 247 | Added by: Rat | Rating: 0.0/0
Total comments: 0
Only registered users can add comments.
[ Registration | Login ]

«  March 2010  »
SuMoTuWeThFrSa
 123456
78910111213
14151617181920
21222324252627
28293031


  • Israel-club.my1.ru


  • Copyright MyCorp © 2017