Saturday, 21.10.2017, 18:02
Welcome Guest | RSS
Main
Registration
Login




Vinyl [7]
Alternative [103]
Jazz [26]
Classic rock [179]
Classical [9]
Hard & Heavy [60]
Mainstream [53]
Hip-Hop [3]
Meditative [11]
New Beats [8]
Progressive [38]
Roots [25]
OST, Campilation [28]
DTS Releases [4]
Dvd Rip [7]
DVD [7]
Lossless HTTP [54]

Rate my site
Total of answers: 17


Total online: 1
Guests: 1
Users: 0

Login form

Main » 2010 » June » 11 » Mountainside - All About Time (2007)
07:44
Mountainside - All About Time (2007)

Mountainside - All About Time (2007)

Artist: Mountainside
Title: All About Time
Styles: Rock | Alternative | Heavy |
Type: Album
Label: ZONA Records
Year: 2007
Language: 10 tracks in [EN] + 4 cover versions in [LT]
Info: my.space.com | info

Tracklist:

01. All About Time 4:47
02. When the Friendship‘s Over 3:39
03. Transition 4:04
04. So Bright and Clear 4:36
05. Another Day 4:57
06. Same Place Another Time 3:53
07. A Girl from Outer Space 3:24
08. Haute Couture and Colombian Cocaine 3:32
09. Lesson in Life 3:33
10. My Mistress 5:46
11. Spalvos (So Bright and Clear) 4:37
12. Bandau pamiršt (Same Place Another Time) 3:57
13. Kokainas ir aukštoji mada (Haute Couture and Colombian Cocaine) 3:34
14. Rytoj nuplaus (Another Day) 4:56

Quote
Established in the end of 1996 the long standing Lithuanian alternative heavy rock band MOUNTAINSIDE is well known for its original and unorthodox style, driving live performances and skepticism towards the music industry.
The band is also active in Lithuanian rock scene: drummer Karolis runs recording studio "Climax sound", guitarist Sharas organizes festival MountainRock and with a help from basist Rytelis maintains the only Lithuanian rock oriented news portal mountainrock.lt ([url]www.mountainrock.lt)[/url].
Considered to be one of the most diverse bands in Lithuania MOUNTAINSIDE four years in a row earned a nomination in the Lithuanian Alternative Music awards in the category of the Best Lithuanian Rock/Metal Band in 2003, 2004, 2005 and 2006.
One of the busiest bands in Lithuanian underground MOUNTAINSIDE every year play lots of driving 100% rocknroll performances in Lithuanian and foreign clubs, pubs, big and small open-air festivals and other places.
MOUNTAINSIDE shared the stage with such bands as a legendary Lithuanian band BIX, TITO and TARANTULA, NEW MODEL ARMY, ENTOMBED, DISMEMBER, THE BONES.
Over the years the band gathered a committed pack of fans, and this culminated in the establishment of the MOUNTAINSIDE fan club in March of 2001.
In early 2003 MOUNTAINSIDE released a long awaited debut mini album Distorted. The first pressing quickly sold out. In 2002 track Nepanikuok was included in compilation Euro.lt (Bomba records).
In 2004 young Norwegian film director Fredrik Bryn has used several MOUNTAINSIDE songs for the soundtrack of the race-car movie that has been shot in Norway for Planet Freddie and released as a DVD.
In April 2007 the second album "All About Time" was finally out and hit the shops. It is released by "ZONA Records" - the oldest indie in the Baltic States. my.space.com

Code

Exact Audio Copy V0.99 prebeta 2 from 28. July 2007

EAC extraction logfile from 20. August 2007, 20:23

Mountainside / All About Time

Used drive  : Optiarc DVD RW AD-7173A   Adapter: 5  ID: 0

Read mode               : Secure
Utilize accurate stream : Yes
Defeat audio cache      : Yes
Make use of C2 pointers : No

Read offset correction                      : 48
Overread into Lead-In and Lead-Out          : No
Fill up missing offset samples with silence : Yes
Delete leading and trailing silent blocks   : No
Null samples used in CRC calculations       : Yes
Used interface                    : Native Win32 interface for Win NT & 2000

Used output format : Internal WAV Routines
Sample format      : 44.100 Hz; 16 Bit; Stereo

TOC of the extracted CD

       Track |   Start  |  Length  | Start sector | End sector   
      ---------------------------------------------------------
          1  |  0:00.00 |  4:47.24 |         0    |    21548     
          2  |  4:47.24 |  3:39.00 |     21549    |    37973     
          3  |  8:26.24 |  4:03.73 |     37974    |    56271     
          4  | 12:30.22 |  4:35.40 |     56272    |    76936     
          5  | 17:05.62 |  4:57.15 |     76937    |    99226     
          6  | 22:03.02 |  3:53.01 |     99227    |   116702     
          7  | 25:56.03 |  3:23.62 |    116703    |   131989     
          8  | 29:19.65 |  3:31.60 |    131990    |   147874     
          9  | 32:51.50 |  3:32.72 |    147875    |   163846     
         10  | 36:24.47 |  5:46.23 |    163847    |   189819     
         11  | 42:10.70 |  4:36.52 |    189820    |   210571     
         12  | 46:47.47 |  3:57.22 |    210572    |   228368     
         13  | 50:44.69 |  3:33.68 |    228369    |   244411     
         14  | 54:18.62 |  4:55.47 |    244412    |   266583     

Range status and errors

Selected range

       Filename H:\Music\Mountainside - All About Time.wav

       Peak level 98.8 %
       Range quality 99.9 %
       Copy CRC E3E0E9DC
       Copy OK

No errors occurred

End of status report

RIP INFO:
Extractor:
EAC v0.99 prebeta 2
Codec: Mokeys Audio v3.99
Compression Level: Extra High
Archiver: WinRAR v3.62
Archive Content: EAC/APE/CUE/LOG/COVERS
Rip date: 20. August 2007
Released by Boo
Size: 419.28 MB
TT: 59:14

download

Category: Alternative | Views: 214 | Added by: Rat | Rating: 0.0/0
Total comments: 0
Only registered users can add comments.
[ Registration | Login ]

«  June 2010  »
SuMoTuWeThFrSa
  12345
6789101112
13141516171819
20212223242526
27282930


  • Israel-club.my1.ru


  • Copyright MyCorp © 2017