Thursday, 20.07.2017, 16:42
Welcome Guest | RSS
Main
Registration
Login




Vinyl [7]
Alternative [103]
Jazz [26]
Classic rock [179]
Classical [9]
Hard & Heavy [60]
Mainstream [53]
Hip-Hop [3]
Meditative [11]
New Beats [8]
Progressive [38]
Roots [25]
OST, Campilation [28]
DTS Releases [4]
Dvd Rip [7]
DVD [7]
Lossless HTTP [54]

Rate my site
Total of answers: 17


Total online: 1
Guests: 1
Users: 0

Login form

Main » 2010 » February » 5 » Milky Lasers - Voyage (2005)
00:01
Milky Lasers - Voyage (2005)

Milky Lasers - Voyage (2005)

Artist: Pieno Lazeriai (Milky Lasers)
Title: Voyage
Styles: Electronic | Hardcore | Nu-Jazz | Adult Pop
Type: Album
Label: Phazz A Delic | 05051010
Year: 2005
Info: amazon.de | AMG

Tracklisting:

01. I‘m in Love 4:26
02. Born Again 3:22
03. Sea balance 4:00
04. Comfort 3:05
05. Never Fall 3:40
06. Robot is.. 2:40
07. Tai Chi 3:48
08. Sni Trava 5:06
09. Dance was over 1:48
10. Voyage 5:12
11. My Mood 4:16
12. Poodle 2:22

Quote
1 hour ride behind a cow trailer, looking at cows shaking udder, became a starting point of Milky Lasers project. What if a cow could shoot laser beams out of it's long dugs? Logicaly, it should be milk lasers!

Starting the moment, "milky lasers" became the words, describing kitsch and parody. Full of 80's and 90's triviality sounds, music, as described by Milky’s, is electronic-punk-jazz-rock. With no idea how this style will evolve in future, „Milky Lasers" keeps experimenting with colourful samples, live instruments, voices and sound effects, balancing between easy listening jazzy melodies and complete electronic chaos.

Project members have no musical education, but this case doesn’t cause difficulties to become most wanted party guests and even one track being released by Italian "Irma records” (peculiar "Gali gerci gerci” remix). Such events couldn't be unnoticed: soon young promotional agency "Brown Dot" put a believe on miraculous sounds of „Milky Lasers". As a result of this cooperation, Milky’s entered local and foreign scene, also taking part in international festivals and met Phazz-a-delic!

Andrius Sarapovas, ideological leader, musician and producer is backed by Rokas Domereckas (rhythmics, vocals, DJ’ing), Egle Jauncemaite (vocals, lyrics), Juste Arlauskaite (vocals, lyrics) and Vytis Smolskas (keyboard). Many more people support Milky Lasers on shows, which are usually crowded with musicians: DJ, scratch DJ, beat maker, guitars, piano, vocalists, flute, sax and even beatboxing ...

Milky’s potential is unlimited: Chinese romantics, Russian fables, French elegancy, Lithuanian innocence mixed with milk and lasers explodes to first full album release. „Voyage" at the German music label Phazz-a-delic represents both sides of Milky Lasers: the softness and purity of milk, and cruelty and sharpness of lasers.

phazzadelic.com

Code
Exact Audio Copy V0.99 prebeta 3 from 28. July 2007

EAC extraction logfile from 7. December 2007, 6:58

Pieno Lazeriai / Voyage

Used drive  : Optiarc DVD RW AD-7173A   Adapter: 5  ID: 0

Read mode               : Secure
Utilize accurate stream : Yes
Defeat audio cache      : Yes
Make use of C2 pointers : No

Read offset correction                      : 48
Overread into Lead-In and Lead-Out          : No
Fill up missing offset samples with silence : Yes
Delete leading and trailing silent blocks   : No
Null samples used in CRC calculations       : Yes
Used interface                    : Native Win32 interface for Win NT & 2000

Used output format : Internal WAV Routines
Sample format      : 44.100 Hz; 16 Bit; Stereo

TOC of the extracted CD

       Track |   Start  |  Length  | Start sector | End sector   
      ---------------------------------------------------------
          1  |  0:00.00 |  4:29.59 |         0    |    20233     
          2  |  4:29.59 |  3:24.62 |     20234    |    35595     
          3  |  7:54.46 |  4:00.26 |     35596    |    53621     
          4  | 11:54.72 |  3:08.12 |     53622    |    67733     
          5  | 15:03.09 |  3:42.06 |     67734    |    84389     
          6  | 18:45.15 |  2:42.02 |     84390    |    96541     
          7  | 21:27.17 |  3:50.04 |     96542    |   113795     
          8  | 25:17.21 |  5:08.26 |    113796    |   136921     
          9  | 30:25.47 |  1:50.30 |    136922    |   145201     
         10  | 32:16.02 |  5:12.01 |    145202    |   168602     
         11  | 37:28.03 |  4:18.18 |    168603    |   187970     
         12  | 41:46.21 |  2:22.35 |    187971    |   198655     

Range status and errors

Selected range

       Filename H:\Music\Pieno Lazeriai - Voyage.wav

       Peak level 99.9 %
       Range quality 100.0 %
       Copy CRC 78C50251
       Copy OK

No errors occurred

End of status report

RIP INFO:
Extractor:
EAC v0.99 prebeta 3
Codec: Mokey’s Audio v3.99
Compression Level: Extra High
Archiver: WinRAR v3.71
Archive Content: EAC/APE/CUE/LOG/COVERS
Rip date: 7. December 2007
Released by Boo
Size: 277.34 MB
TT: 44:08

Milky Lasers - Voyage (2005)

Enjoy!

Category: New Beats | Views: 408 | Added by: Rat | Rating: 0.0/0
Total comments: 0
Only registered users can add comments.
[ Registration | Login ]

«  February 2010  »
SuMoTuWeThFrSa
 123456
78910111213
14151617181920
21222324252627
28


  • Israel-club.my1.ru


  • Copyright MyCorp © 2017