Tuesday, 24.10.2017, 02:10
Welcome Guest | RSS
Main
Registration
Login




Vinyl [7]
Alternative [103]
Jazz [26]
Classic rock [179]
Classical [9]
Hard & Heavy [60]
Mainstream [53]
Hip-Hop [3]
Meditative [11]
New Beats [8]
Progressive [38]
Roots [25]
OST, Campilation [28]
DTS Releases [4]
Dvd Rip [7]
DVD [7]
Lossless HTTP [54]

Rate my site
Total of answers: 17


Total online: 1
Guests: 1
Users: 0

Login form

Main » 2011 » April » 20 » Mieczyslaw Weinberg (Vainberg) - Cello Sonatas Nos. 1 & 2,3
09:47
Mieczyslaw Weinberg (Vainberg) - Cello Sonatas Nos. 1 & 2,3
 
Artist:Mieczyslaw Weinberg (Vainberg) 
Album:Cello Sonatas Nos. 1 and 2; Cello Solo Sonatas Nos. 1 and 3 
Quality: EAC Rip | FLAC+CUE+LOG | Covers | 299 MB | Filesonic 
Genre: 20th/21st Century Classical - Contemporary | 2010 | Naxos 
Rip by 54ajax

Quote
Mieczyslaw Weinberg (Sovietperiod: Vainberg) is an extremely subtle and delicate composer: the music breathes a warmth that is seldom found in contemporary classical music. Yet upon hearing Weinberg's works one is startled by their intrinsic power. The composer was a very modest person, and because of this he has remained unknown and in the shadow of others, even though his music is no less great. I'm starting to post the CD's I own of this remarkable composer.

Tracklist

01. Cello Sonata No. 1, Op. 21 - I. Lento ma non troppo [0:07:20.52] 
02. II. Un poco moderato - Lento ma non troppo [0:09:55.08] 
03. Cello Sonata No. 2, Op. 63 - I. Moderato [0:06:16.97] 
04. II. Andante [0:06:48.74] 
05. III. Allegro [0:06:54.60] 
06. Cello Solo Sonata No. 1, Op. 72 - I. Adagio [0:05:42.02] 
07. II. Allegretto [0:02:35.10] 
08. III. Allegro [0:03:53.54] 
09. Cello Solo Sonata No. 3, Op. 106 - I. Allegro [0:08:57.86] 
10. II. Allegretto [0:03:07.74] 
11. III. Lento [0:06:03.90] 
12. IV. Presto [0:04:40.78] 

EAC-log 

Code
Exact Audio Copy V1.0 beta 1 from 15. November 2010 

EAC extraction logfile from 12. March 2011, 23:16 

Weinberg, Mieczyslaw / Cello Sonatas Nos. 1 and 2; Cello Solo Sonatas Nos. 1 and 3  

Used drive : TSSTcorpCDDVDW SH-S223C Adapter: 1 ID: 1 

Read mode : Secure 
Utilize accurate stream : Yes 
Defeat audio cache : No 
Make use of C2 pointers : Yes 

Read offset correction : 697 
Overread into Lead-In and Lead-Out : No 
Fill up missing offset samples with silence : Yes 
Delete leading and trailing silent blocks : No 
Null samples used in CRC calculations : No 
Used interface : Native Win32 interface for Win NT & 2000 

Used output format : User Defined Encoder 
Selected bitrate : 768 kBit/s 
Quality : High 
Add ID3 tag : No 
Command line compressor : C:\Program Files (x86)\Exact Audio Copy\FLAC\FLAC.EXE 
Additional command line options : -6 -V -T "ARTIST=%a" -T "TITLE=%t" -T "ALBUM=%g" -T "DATE=%y" -T "TRACKNUMBER=%n"  

-T "GENRE=%m" -T "COMMENT=%e" %j--picture="%i"%j %s -o %d 

TOC of the extracted CD 

Track | Start | Length | Start sector | End sector  
--------------------------------------------------------- 
1 | 0:00.00 | 7:20.39 | 0 | 33038  
2 | 7:20.39 | 9:55.06 | 33039 | 77669  
3 | 17:15.45 | 6:16.73 | 77670 | 105942  
4 | 23:32.43 | 6:48.56 | 105943 | 136598  
5 | 30:21.24 | 6:54.45 | 136599 | 167693  
6 | 37:15.69 | 5:42.02 | 167694 | 193345  
7 | 42:57.71 | 2:35.08 | 193346 | 204978  
8 | 45:33.04 | 3:53.41 | 204979 | 222494  
9 | 49:26.45 | 8:57.65 | 222495 | 262834  
10 | 58:24.35 | 3:07.56 | 262835 | 276915  
11 | 61:32.16 | 6:03.68 | 276916 | 304208  
12 | 67:36.09 | 4:40.59 | 304209 | 325267  

Range status and errors 

Selected range 

Filename E:\digileen\Weinberg, Mieczyslaw 7\Cello Sonatas Nos. 1 and 2, a.o\Weinberg, Mieczyslaw - Cello  

Sonatas Nos. 1 and 2; Cello Solo Sonatas Nos. 1 and 3.wav 

Peak level 91.8 % 
Extraction speed 1.1 X 
Range quality 99.8 % 
Test CRC 837EAF64 
Copy CRC 837EAF64 
Copy OK 

No errors occurred 

AccurateRip summary 

Track 1 not present in database 
Track 2 not present in database 
Track 3 not present in database 
Track 4 not present in database 
Track 5 not present in database 
Track 6 not present in database 
Track 7 not present in database 
Track 8 not present in database 
Track 9 not present in database 
Track 10 not present in database 
Track 11 not present in database 
Track 12 not present in database 

None of the tracks are present in the AccurateRip database 

End of status report 

==== Log checksum EFD8259157B25B2ED74784D78B31642A873C79970E7268F8D28244A1EE037D891 ==== 

Download-links

No Mirrors Please

Filesonic

http://www.filesonic.com/file/213314512/Weinberg, Mieczyslaw 7.part1.rar 
http://www.filesonic.com/file/213284122/Weinberg, Mieczyslaw 7.part2.rar 
http://www.filesonic.com/file/213284082/Weinberg, Mieczyslaw 7.part3.rar

Category: Lossless HTTP | Views: 257 | Added by: Rat | Rating: 0.0/0
Total comments: 0
Only registered users can add comments.
[ Registration | Login ]

«  April 2011  »
SuMoTuWeThFrSa
     12
3456789
10111213141516
17181920212223
24252627282930


  • Israel-club.my1.ru


  • Copyright MyCorp © 2017