Sunday, 20.08.2017, 19:18
Welcome Guest | RSS
Main
Registration
Login




Vinyl [7]
Alternative [103]
Jazz [26]
Classic rock [179]
Classical [9]
Hard & Heavy [60]
Mainstream [53]
Hip-Hop [3]
Meditative [11]
New Beats [8]
Progressive [38]
Roots [25]
OST, Campilation [28]
DTS Releases [4]
Dvd Rip [7]
DVD [7]
Lossless HTTP [54]

Rate my site
Total of answers: 17


Total online: 1
Guests: 1
Users: 0

Login form

Main » 2010 » February » 11 » Midnight Oil - Blue Sky Mining (1990)
02:19
Midnight Oil - Blue Sky Mining (1990)

 
# Audio CD: Midnight Oil - Blue Sky Mining
# Original Release Date: February 27, 1990
# Genre: soft/pub rock
# Label: Sony
# FORMAT: eac - flac
01. Blue Sky Mine [0:04:15.37]
02. Stars of Warburton [0:04:54.43]
03. Bedlam Bridge [0:04:32.30]
04. Forgotten Years [0:04:16.10]
05. Mountains of Burma [0:04:55.27]
06. King of the Mountain [0:03:51.40]
07. River Runs Red [0:05:22.52]
08. Shakers and Movers [0:04:27.05]
09. One Country [0:05:53.35]
10. Antarctica [0:04:17.70]
Quote

Easily one of the top 4 or 5 Midnight Oil albums, as well as one of the albums responsible for their popularity. Not only is it musically superb, but it has some extremely sharp lyrics as well (a standar MO feature...but particulary potent here.) From the blistering harmonica solo in "Blue Sky Mine" to the infectious beats of "Forgotten Years" to the swirling sonic mass of screaming guitars on "River Runs Red" to the etereal calm of "Antarctica" this album is not only one of Midnight Oil's best, but one of the best I own. I was only a little kid when this came out too, but its music and lyrics are timeless.
This is the best example of what I call "late middle period" Midnight Oil (including albums like "Diesel & Dust" "Blue Sky Mining" "Species Deceases") Along with "Diesel & Dust" "10, 9, 8..." "Earth & Sun & Moon" "Head Injuries" & "Red Sails in the Sunset", this is one of the best places to dive into the world of Midnight Oil. I HIGHLY recommend this.


Code

Exact Audio Copy V0.99 prebeta 4 from 23. January 2008

EAC extraction logfile from 26. July 2009, 11:24

Midnight Oil / Blue Sky Mining

Used drive : Optiarc DVD RW AD-7170A Adapter: 3 ID: 0

Read mode : Secure
Utilize accurate stream : Yes
Defeat audio cache : Yes
Make use of C2 pointers : No

Read offset correction : 48
Overread into Lead-In and Lead-Out : No
Fill up missing offset samples with silence : Yes
Delete leading and trailing silent blocks : No
Null samples used in CRC calculations : Yes
Used interface : Installed external ASPI interface

Used output format : Internal WAV Routines
Sample format : 44.100 Hz; 16 Bit; Stereo

TOC of the extracted CD

Track | Start | Length | Start sector | End sector
---------------------------------------------------------
1 | 0:00.00 | 4:15.37 | 0 | 19161
2 | 4:15.37 | 4:54.43 | 19162 | 41254
3 | 9:10.05 | 4:32.30 | 41255 | 61684
4 | 13:42.35 | 4:16.10 | 61685 | 80894
5 | 17:58.45 | 4:55.27 | 80895 | 103046
6 | 22:53.72 | 3:51.40 | 103047 | 120411
7 | 26:45.37 | 5:22.52 | 120412 | 144613
8 | 32:08.14 | 4:27.05 | 144614 | 164643
9 | 36:35.19 | 5:53.35 | 164644 | 191153
10 | 42:28.54 | 4:17.70 | 191154 | 210498

Range status and errors

Selected range

Filename C:\Documents and Settings\Мои документы\Midnight Oil - Blue Sky Mining.by.rat.eac.flac.covers.Israel-club.my1.ru\Midnight Oil - Blue Sky Mining.by.wav

Peak level 97.7 %
Range quality 100.0 %
Copy CRC FB5D5144
Copy OK

No errors occurred

End of status report


DOWNLOAD
Category: Classic rock | Views: 302 | Added by: Rat | Rating: 0.0/0
Total comments: 0
Only registered users can add comments.
[ Registration | Login ]

«  February 2010  »
SuMoTuWeThFrSa
 123456
78910111213
14151617181920
21222324252627
28


  • Israel-club.my1.ru


  • Copyright MyCorp © 2017