Sunday, 20.08.2017, 19:17
Welcome Guest | RSS
Main
Registration
Login




Vinyl [7]
Alternative [103]
Jazz [26]
Classic rock [179]
Classical [9]
Hard & Heavy [60]
Mainstream [53]
Hip-Hop [3]
Meditative [11]
New Beats [8]
Progressive [38]
Roots [25]
OST, Campilation [28]
DTS Releases [4]
Dvd Rip [7]
DVD [7]
Lossless HTTP [54]

Rate my site
Total of answers: 17


Total online: 1
Guests: 1
Users: 0

Login form

Main » 2010 » February » 11 » Midnight Oil - 20.000 Watt R.S.L (1997)
02:09
Midnight Oil - 20.000 Watt R.S.L (1997)

 
# Audio CD: Midnight Oil - 20.000 Watt R.S.L
# Original Release Date: 1997
# Number of Discs: 1
# Format: Eac-Flac
# Label: Sprint Music / CBS Records
# Gebre: Rock
Quote
20,000 Watt R.S.L is a compilation album by Australian rock band Midnight Oil released in October 1997 on their own label Sprint Music.[1][2] It includes tracks from their 1979 album, Head Injuries up to two songs from Redneck Wonderland which was released in 1998.[2] The album peaked at #1 on the Australian Recording Industry Association (ARIA) album charts,[3] and achieved 4×Platinum sales,[4] it also peaked at #18 in New Zealand.[5] The R.S.L. in the title refers to the Returned and Services League of Australia.
Midnight Oil was an Australian rock band from Sydney formed in 1976 with vocalist Peter Garrett, drummer Rob Hirst, bass guitarist Andrew James and keyboardist/lead guitarist Jim Moginie, Guitarist Martin Rotsey joined in 1977 and Midnight Oil established their own record label Powderworks,[2] they released their second album Head Injuries on this label in October 1979. Founding bass guitarist James left due to illness in 1980, he was replaced by Peter Gifford, Gifford was himself replaced by Bones Hillman in 1987.
Australian Top Ten singles were "Power and the Passion", "The Dead Heart", "Beds Are Burning" and "Blue Sky Mine".Aside from chart success both "Power and the Passion" and "Beds Are Burning" were listed by Australasian Performing Right Association (APRA) in the Top 30 best Australian songs of all time in 2001.Through a long and distinguished career, the band became known for its driving hard-rock sound, intense live performances and political activism, particularly in aid of anti-nuclear, environmentalist and indigenous causes.



1. "What Goes On" (Midnight Oil) (from Redneck Wonderland, 1998)
2. "Power and the Passion" (Rob Hirst, Jim Moginie, Peter Garrett) (from 10, 9, 8, 7, 6, 5, 4, 3, 2, 1, 1982)
3. "Dreamworld" (Moginie, Garrett, Hirst) (from Diesel and Dust, 1987)
4. "White Skin Black Heart" (Midnight Oil) (from Redneck Wonderland, 1998)
5. "Kosciuszko" (Hirst, Moginie) (from Red Sails in the Sunset, 1984)
6. "The Dead Heart" (Hirst, Moginie, Garrett) (from Diesel and Dust, 1987)
7. "Blue Sky Mine" (Midnight Oil) (from Blue Sky Mining, 1990)
8. "US Forces" (Moginie, Garrett) (from 10, 9, 8, 7, 6, 5, 4, 3, 2, 1, 1982)
9. "Beds Are Burning" (Hirst, Moginie, Garrett) (from Diesel and Dust, 1987)
10. "One Country" (Moginie, Garrett) (from Blue Sky Mining, 1990)
11. "Best of Both Worlds" (Hirst, Moginie) (from Red Sails in the Sunset, 1984)
12. "Truganini" (Hirst, Moginie) (from Earth and Sun and Moon, 1993)
13. "King of the Mountain" (Hirst, Moginie) (from Blue Sky Mining, 1990)
14. "Hercules" (Moginie, Garrett, Hirst) (from Species Deceases, 1985)
15. "Surf's up Tonight" (Midnight Oil) - from Breathe, 1996)
16. "Back on the Borderline" (Andrew James, Garrett, Hirst) (from Head Injuries, 1979)
17. "Don't Wanna Be the One" (Hirst, Garrett, Martin Rotsey, Moginie) (from Place without a Postcard, 1981)
18. "Forgotten Years" (Hirst, Moginie) (from Blue Sky Mining, 1990)
Code
Exact Audio Copy V0.99 prebeta 4 from 23. January 2008

EAC extraction logfile from 9. June 2009, 12:47

Midnight Oil / 20,000 Watt R.S.L.

Used drive : Optiarc DVD RW AD-7170A Adapter: 3 ID: 0

Read mode : Secure
Utilize accurate stream : Yes
Defeat audio cache : Yes
Make use of C2 pointers : No

Read offset correction : 48
Overread into Lead-In and Lead-Out : No
Fill up missing offset samples with silence : Yes
Delete leading and trailing silent blocks : No
Null samples used in CRC calculations : Yes
Used interface : Installed external ASPI interface

Used output format : Internal WAV Routines
Sample format : 44.100 Hz; 16 Bit; Stereo

TOC of the extracted CD

Track | Start | Length | Start sector | End sector
---------------------------------------------------------
1 | 0:00.00 | 2:56.07 | 0 | 13206
2 | 2:56.07 | 5:40.27 | 13207 | 38733
3 | 8:36.34 | 3:35.30 | 38734 | 54888
4 | 12:11.64 | 3:43.03 | 54889 | 71616
5 | 15:54.67 | 4:42.20 | 71617 | 92786
6 | 20:37.12 | 5:11.52 | 92787 | 116163
7 | 25:48.64 | 4:20.23 | 116164 | 135686
8 | 30:09.12 | 4:06.12 | 135687 | 154148
9 | 34:15.24 | 4:15.68 | 154149 | 173341
10 | 38:31.17 | 5:54.40 | 173342 | 199931
11 | 44:25.57 | 4:05.20 | 199932 | 218326
12 | 48:31.02 | 5:11.45 | 218327 | 241696
13 | 53:42.47 | 3:49.32 | 241697 | 258903
14 | 57:32.04 | 4:29.65 | 258904 | 279143
15 | 62:01.69 | 3:05.20 | 279144 | 293038
16 | 65:07.14 | 3:09.35 | 293039 | 307248
17 | 68:16.49 | 3:00.70 | 307249 | 320818
18 | 71:17.44 | 4:21.45 | 320819 | 340438

Range status and errors

Selected range

Filename C:\Documents and Settings\Мои документы\Midnight Oil - 20,000 Watt R.S.L.by.rat.eac.flac.covers.Israel-club.my1.ru\Midnight Oil - 20,000 Watt R.S.L.by.rat.eac.flac.covers.Israel-club.my1.ru.wav

Peak level 99.6 %
Range quality 100.0 %
Copy CRC 561E78E8
Copy OK

No errors occurred

End of status report


My WebPage
Category: Classic rock | Views: 335 | Added by: Rat | Rating: 0.0/0
Total comments: 0
Only registered users can add comments.
[ Registration | Login ]

«  February 2010  »
SuMoTuWeThFrSa
 123456
78910111213
14151617181920
21222324252627
28


  • Israel-club.my1.ru


  • Copyright MyCorp © 2017