Friday, 23.06.2017, 22:51
Welcome Guest | RSS
Main
Registration
Login




Vinyl [7]
Alternative [103]
Jazz [26]
Classic rock [179]
Classical [9]
Hard & Heavy [60]
Mainstream [53]
Hip-Hop [3]
Meditative [11]
New Beats [8]
Progressive [38]
Roots [25]
OST, Campilation [28]
DTS Releases [4]
Dvd Rip [7]
DVD [7]
Lossless HTTP [54]

Rate my site
Total of answers: 17


Total online: 1
Guests: 1
Users: 0

Login form

Main » 2010 » February » 5 » Midge Ure - 10 (2008)
23:10
Midge Ure - 10 (2008)

# Audio CD: Midge Ure - 10
# Original Release Date: (29 Sep 2008)
# Genre: New wave
# Label: Hypertension
# Format: eac-ape

Quote
You can tell these songs are personal to Midge by the way they have not been done with huge over production. He has kept them simple and by doing so has made one of his most emotional records. Nevermore is the standout for me, the only dissapointment is that 'little girl in bloom' is not included, a Thin Lizzy track he sometime performs live. It took a couple of listens before it grabbed me but now I have to say that ten is an excellent album. Emotional and sometimes raw. Well done Midge

1. Alfie
2. Man of the World
3. Goodbye to Love
4. Day After Day
5. Let the Heartaches Begin
6. My Minds Eye
7. Song for While I'm Away
8. Nevermore
9. To Sir with Love
10. Lady Stardust

Code
Exact Audio Copy V0.99 prebeta 4 from 23. January 2008

EAC extraction logfile from 11. May 2009, 17:36

Midge Ure / 10

Used drive  : Optiarc DVD RW AD-7170A   Adapter: 3  ID: 0

Read mode               : Secure
Utilize accurate stream : Yes
Defeat audio cache      : Yes
Make use of C2 pointers : No

Read offset correction                      : 48
Overread into Lead-In and Lead-Out          : No
Fill up missing offset samples with silence : Yes
Delete leading and trailing silent blocks   : No
Null samples used in CRC calculations       : Yes
Used interface                    : Installed external ASPI interface

Used output format : Internal WAV Routines
Sample format      : 44.100 Hz; 16 Bit; Stereo

TOC of the extracted CD

       Track |   Start  |  Length  | Start sector | End sector   
      ---------------------------------------------------------
          1  |  0:00.00 |  2:32.53 |         0    |    11452     
          2  |  2:32.53 |  3:02.26 |     11453    |    25128     
          3  |  5:35.04 |  5:27.72 |     25129    |    49725     
          4  | 11:03.01 |  3:16.01 |     49726    |    64426     
          5  | 14:19.02 |  4:06.50 |     64427    |    82926     
          6  | 18:25.52 |  2:31.30 |     82927    |    94281     
          7  | 20:57.07 |  5:39.68 |     94282    |   119774     
          8  | 26:37.00 |  2:51.66 |    119775    |   132665     
          9  | 29:28.66 |  4:06.71 |    132666    |   151186     
         10  | 33:35.62 |  3:56.41 |    151187    |   168927     

Range status and errors

Selected range

       Filename C:\Documents and Settings\Мои документы\Midge Ure - 10.by.rat.eac.ape.covers.Israel-club.my1.ru\Midge Ure - 10.by.rat.eac.ape.covers.Israel-club.my1.ru.wav

       Peak level 99.2 %
       Range quality 100.0 %
       Copy CRC C2AA3B9C
       Copy OK

No errors occurred

End of status report

My WebPage

Category: Alternative | Views: 308 | Added by: Rat | Rating: 0.0/0
Total comments: 1
0   Spam
1 xingxingfly   (20.08.2011 16:30)
need more

Only registered users can add comments.
[ Registration | Login ]

«  February 2010  »
SuMoTuWeThFrSa
 123456
78910111213
14151617181920
21222324252627
28


  • Israel-club.my1.ru


  • Copyright MyCorp © 2017