Thursday, 14.12.2017, 02:33
Welcome Guest | RSS
Main
Registration
Login




Vinyl [7]
Alternative [103]
Jazz [26]
Classic rock [179]
Classical [9]
Hard & Heavy [60]
Mainstream [53]
Hip-Hop [3]
Meditative [11]
New Beats [8]
Progressive [38]
Roots [25]
OST, Campilation [28]
DTS Releases [4]
Dvd Rip [7]
DVD [7]
Lossless HTTP [54]

Rate my site
Total of answers: 17


Total online: 1
Guests: 1
Users: 0

Login form

Main » 2010 » February » 12 » Mick Jones (Foreigner) - Mick Jones (1989)
22:00
Mick Jones (Foreigner) - Mick Jones (1989)

Released: 1989
Genre : AOR/Classic/Hard rock
Length: 42:14
Label : Atlantic Records
Quality: eac-flac

Quote
Mick Jones is singer-songwriter Mick Jones's self-titled debut/studio album, released in 1989. Jones is one of the original members of the group Foreigner. The album was Mick Jones' only solo release.

Released on Atlantic Records, this album included Billy Joel and Carly Simon as guest singers. Joel sang with Jones on the song "Just Wanna Hold" and Simon sang with Jones on the songs "That's The Way My Love Is" and "Write Tonight". It is widely believed that the co-composer "M Phillips" on the track "Just Wanna Hold" is a pseudonym of Mick Jagger.

01. Just Wanna Hold [0:03:33.55]
02. Save Me Tonight [0:03:53.05]
03. That's The Way My Love Is [0:03:28.23]
04. The Wrong Side Of The Law [0:05:21.35]
05. 4 Wheels Turnin' [0:04:39.32]
06. Everything That Comes Around [0:04:49.03]
07. You Are My Friend [0:05:44.50]
08. Danielle [0:04:38.07]
09. Write Tonight [0:04:25.50]
10. Johnny (Part 1) [0:01:44.33]

Code
Exact Audio Copy V0.99 prebeta 4 from 23. January 2008

EAC extraction logfile from 17. December 2009, 22:34

Mick Jones / Mick Jones

Used drive  : Optiarc DVD RW AD-7170A   Adapter: 3  ID: 0

Read mode               : Secure
Utilize accurate stream : Yes
Defeat audio cache      : Yes
Make use of C2 pointers : No

Read offset correction                      : 48
Overread into Lead-In and Lead-Out          : No
Fill up missing offset samples with silence : Yes
Delete leading and trailing silent blocks   : No
Null samples used in CRC calculations       : Yes
Used interface                    : Installed external ASPI interface

Used output format : Internal WAV Routines
Sample format      : 44.100 Hz; 16 Bit; Stereo

TOC of the extracted CD

        Track |   Start  |  Length  | Start sector | End sector    
       ---------------------------------------------------------
           1  |  0:00.00 |  3:33.55 |         0    |    16029      
           2  |  3:33.55 |  3:53.05 |     16030    |    33509      
           3  |  7:26.60 |  3:28.23 |     33510    |    49132      
           4  | 10:55.08 |  5:21.35 |     49133    |    73242      
           5  | 16:16.43 |  4:39.32 |     73243    |    94199      
           6  | 20:56.00 |  4:49.03 |     94200    |   115877      
           7  | 25:45.03 |  5:44.50 |    115878    |   141727      
           8  | 31:29.53 |  4:38.07 |    141728    |   162584      
           9  | 36:07.60 |  4:25.50 |    162585    |   182509      
          10  | 40:33.35 |  1:44.33 |    182510    |   190342      

Range status and errors

Selected range

        Filename C:\Documents and Settings\Мои документы\Mick Jones - Mick Jones.flac.covers..by.rat.Israel-club.my1.ru\Mick Jones - Mick Jones.flac.covers..by.rat.Israel-club.my1.ru.wav

        Peak level 97.2 %
        Range quality 100.0 %
        Copy CRC 5C3B2A8A
        Copy OK

No errors occurred

End of status report

Download

Category: Classic rock | Views: 355 | Added by: Rat | Rating: 0.0/0
Total comments: 0
Only registered users can add comments.
[ Registration | Login ]

«  February 2010  »
SuMoTuWeThFrSa
 123456
78910111213
14151617181920
21222324252627
28


  • Israel-club.my1.ru


  • Copyright MyCorp © 2017