Saturday, 24.06.2017, 07:14
Welcome Guest | RSS
Main
Registration
Login




Vinyl [7]
Alternative [103]
Jazz [26]
Classic rock [179]
Classical [9]
Hard & Heavy [60]
Mainstream [53]
Hip-Hop [3]
Meditative [11]
New Beats [8]
Progressive [38]
Roots [25]
OST, Campilation [28]
DTS Releases [4]
Dvd Rip [7]
DVD [7]
Lossless HTTP [54]

Rate my site
Total of answers: 17


Total online: 1
Guests: 1
Users: 0

Login form

Main » 2010 » September » 22 » Michael Schenker - Instrumental Intensity (2010)
23:16
Michael Schenker - Instrumental Intensity (2010)

Artist: Michael Schenker
Album: Instrumental Intensity
Released: 2010
Source: Shrapnel Records (SH 1206-2)
Genre: Contemporary Instrumental; Hard Rock; Soft Rock
Format: 7-Zip (Store mode, 469 MB) --> FLAC tracks (EL5), M3U, CUE, LOG, HQ scans

Allmusic Review:

Quote
Instrumental Intensity is a compilation of tracks that are all taken from German guitarist Michael Schenker's recordings on the Shrapnel imprint from 1999 forward. They include cuts from Dreams and Expressions (the tracks "A,” "N” and "D”), the first three from Unforgiven World Tour: Live, and a few from Into the Arena 1972-1995 [Highlights & Overtures]. The mood ranges from the blistering sound of Schenker’s proto, old-school metal attack to his moodier, introspective virtuosity, but it’s all him. Despite the fact that none of these tracks are with UFO, Scorpions, or the Michael Schenker Group, they bear his unmistakable trademark sound and dedication to the guitar. These songs may not be from his best-known years, but they are some of his finest artistic moments.

Amazon Review: 56 minutes in length approximately. The sound is very good - what you would expect from Schenker in a studio situation. The disc is clipped-in, in a fold-out cardboard holder. The graphics are fitting for the music - very electric looking. The notes consist of basically who plays what on what track. The first three tracks consist of Schenker on guitar, with John Onder-bass, and the great Aynsley Dunbar-drums. Tracks 4, 5, 6 and 12 feature Schenker, Barry Sparks-bass, and Shane Gaalaas-drums. Tracks 7, 8, and 9 (live) are a quartet with Schenker, Wayne Findlay-guitars and keyboards, and, once again, the rhythm section of Sparks and Gaalaas. Tracks 10 and 11 are solo numbers by Schenker, with his beautiful acoustic guitar work in the forefront. For fans of Schenker's beautiful and, at times,astounding guitar prowess, this is something worth considering purchasing. The title is no misnomer - this has some intense guitar/rhythm section workouts ("Old Man With Sheep On Mars", "Three Fish Dancing", as examples) as only Schenker can produce, and, at times, Schenker sounds much like he did in UFO. The acoustic tracks are a beautiful balance between his in-your-face-electric-sound, and his more delicate, introspective sound. While there's nothing shockingly new here, Schenker's guitar is, as always, out front, and listeners who like his sound and approach will find much to like here. Add in a rhythm section capable of keeping up with him, and this is another good album of hard, guitar-rock, with a good look at Schenker's acoustic guitar work and arranging. This is one of those albums that seems to sound better at a louder than normal volume. If this doesn't have you playing air-guitar (or drums), then something's wrong with your ears.
AmericaJR Review: Here I sit listening to Michael Schenker’s NEW CD "Instrumental Intensity” for like the 5th or 6th time and I must say that this is truly the perfect Michael Schenker Album for you Schenker Fans and beyond. Of course if you like the Scorpions, the MSG Group, and UFO, then this instrumental album will be a real treat for your euro rock-metal ears. When I listen to Michael’s arrangements, melodies, and rhythmic hooks, I want to start delving more into his musical history and influences… If you listen closely, you can hear his German musical heritage and classical influences, and here is the way I put it to those who don’t know of Michael Schenker’s muse… I tell them like this… Before there was Eddie Van Halen, Adrian Vandenberg, Yngwie Malmsteen, John Sykes, Kirk Hammett and the like, there was Euro-Guitar Master Michael Schenker leading the pack. There is no doubt in my military mind that these cats were influenced by Michael’s playing in some form or fashion with his flashy extended minor scale runs. In addition, with his use of lighting fast pentatonics, uncanny phrasing, memorable hooks and riffs. Mr. Schenker is one of those guitarists who have help shape another musical sound and direction in the annals of rock music history… There have been many bands who have crafted their songs and melodies in this type of widened harmonic fashion and musical bearing. This is definitely one of those albums that will have you playing air guitar when no one is looking. "Instrumental Intensity" contains some of Michael Schenker's greatest instrumental recordings, culled from his many Shrapnel releases. The instrumental arena is where Schenker's entrancing melodies and soaring solos really stand out. A Brilliant composer with a master’s technique, Schenker’s performances are a celebration of rock guitar in its purest form.

Track List:
[list=1]

  • Achtung Fertig, Los!
  • Old Man with Sheep on Mars
  • Three Fish Dancing
  • A
  • N
  • D
  • Bijou Pleasurette/Positive Forward
  • Captain Nemo
  • Essence
  • I Am Grateful
  • The Creator
  • Bonus Track

    Total Playing Time: 56' 47''

    Code
    Exact Audio Copy V0.99 prebeta 5 from 4. May 2009

    EAC extraction logfile from 15. September 2010, 13:47

    Michael Schenker / Instrumental Intensity

    Used drive  : PLEXTOR DVDR   PX-820SA   Adapter: 3  ID: 0

    Read mode               : Secure
    Utilize accurate stream : Yes
    Defeat audio cache      : Yes
    Make use of C2 pointers : No

    Read offset correction                      : 48
    Overread into Lead-In and Lead-Out          : No
    Fill up missing offset samples with silence : Yes
    Delete leading and trailing silent blocks   : No
    Null samples used in CRC calculations       : Yes
    Used interface                    : Installed external ASPI interface
    Gap handling                    : Appended to previous track

    Used output format : Internal WAV Routines
    Sample format      : 44.100 Hz; 16 Bit; Stereo

    TOC of the extracted CD

          Track |   Start  |  Length  | Start sector | End sector  
         ---------------------------------------------------------
             1  |  0:00.00 |  4:40.29 |         0    |    21028    
             2  |  4:40.29 |  6:14.68 |     21029    |    49146    
             3  | 10:55.22 | 14:02.55 |     49147    |   112351    
             4  | 24:58.02 |  0:37.18 |    112352    |   115144    
             5  | 25:35.20 |  3:38.11 |    115145    |   131505    
             6  | 29:13.31 |  1:48.47 |    131506    |   139652    
             7  | 31:02.03 |  5:13.28 |    139653    |   163155    
             8  | 36:15.31 |  3:16.45 |    163156    |   177900    
             9  | 39:32.01 |  4:52.68 |    177901    |   199868    
            10  | 44:24.69 |  3:34.26 |    199869    |   215944    
            11  | 47:59.20 |  4:17.55 |    215945    |   235274    
            12  | 52:17.00 |  4:29.40 |    235275    |   255489    

    Track  1

          Filename C:\supang\Michael Schenker -2010- Instrumental Intensity {SH 1206-2}\01. Achtung Fertig, Los!.wav

          Pre-gap length  0:00:02.00

          Peak level 100.0 %
          Track quality 99.9 %
          Test CRC 187DFFC5
          Copy CRC 187DFFC5
          Copy OK

    Track  2

          Filename C:\supang\Michael Schenker -2010- Instrumental Intensity {SH 1206-2}\02. Old Man with Sheep on Mars.wav

          Peak level 100.0 %
          Track quality 99.9 %
          Test CRC 79B9B6B8
          Copy CRC 79B9B6B8
          Copy OK

    Track  3

          Filename C:\supang\Michael Schenker -2010- Instrumental Intensity {SH 1206-2}\03. Three Fish Dancing.wav

          Peak level 100.0 %
          Track quality 100.0 %
          Test CRC A5D5C820
          Copy CRC A5D5C820
          Copy OK

    Track  4

          Filename C:\supang\Michael Schenker -2010- Instrumental Intensity {SH 1206-2}\04. A.wav

          Peak level 100.0 %
          Track quality 100.0 %
          Test CRC 04E3C333
          Copy CRC 04E3C333
          Copy OK

    Track  5

          Filename C:\supang\Michael Schenker -2010- Instrumental Intensity {SH 1206-2}\05. N.wav

          Peak level 100.0 %
          Track quality 99.9 %
          Test CRC F59E2426
          Copy CRC F59E2426
          Copy OK

    Track  6

          Filename C:\supang\Michael Schenker -2010- Instrumental Intensity {SH 1206-2}\06. D.wav

          Peak level 100.0 %
          Track quality 100.0 %
          Test CRC 20478D52
          Copy CRC 20478D52
          Copy OK

    Track  7

          Filename C:\supang\Michael Schenker -2010- Instrumental Intensity {SH 1206-2}\07. Bijou Pleasurette~Positive Forward.wav

          Peak level 100.0 %
          Track quality 100.0 %
          Test CRC CD8D5099
          Copy CRC CD8D5099
          Copy OK

    Track  8

          Filename C:\supang\Michael Schenker -2010- Instrumental Intensity {SH 1206-2}\08. Captain Nemo.wav

          Peak level 100.0 %
          Track quality 100.0 %
          Test CRC 7BD33E4E
          Copy CRC 7BD33E4E
          Copy OK

    Track  9

          Filename C:\supang\Michael Schenker -2010- Instrumental Intensity {SH 1206-2}\09. Essence.wav

          Peak level 100.0 %
          Track quality 100.0 %
          Test CRC 33D7D749
          Copy CRC 33D7D749
          Copy OK

    Track 10

          Filename C:\supang\Michael Schenker -2010- Instrumental Intensity {SH 1206-2}\10. I Am Grateful.wav

          Peak level 100.0 %
          Track quality 100.0 %
          Test CRC C539FF5D
          Copy CRC C539FF5D
          Copy OK

    Track 11

          Filename C:\supang\Michael Schenker -2010- Instrumental Intensity {SH 1206-2}\11. The Creator.wav

          Peak level 100.0 %
          Track quality 100.0 %
          Test CRC D9BA36C4
          Copy CRC D9BA36C4
          Copy OK

    Track 12

          Filename C:\supang\Michael Schenker -2010- Instrumental Intensity {SH 1206-2}\12. Bonus Track.wav

          Peak level 100.0 %
          Track quality 100.0 %
          Test CRC 29FA0CB9
          Copy CRC 29FA0CB9
          Copy OK

    No errors occurred

    End of status report

    DOWNLOAD

  • Category: OST, Campilation | Views: 309 | Added by: Rat | Rating: 0.0/0
    Total comments: 0
    Only registered users can add comments.
    [ Registration | Login ]

    «  September 2010  »
    SuMoTuWeThFrSa
       1234
    567891011
    12131415161718
    19202122232425
    2627282930


  • Israel-club.my1.ru


  • Copyright MyCorp © 2017