Friday, 23.06.2017, 22:45
Welcome Guest | RSS
Main
Registration
Login




Vinyl [7]
Alternative [103]
Jazz [26]
Classic rock [179]
Classical [9]
Hard & Heavy [60]
Mainstream [53]
Hip-Hop [3]
Meditative [11]
New Beats [8]
Progressive [38]
Roots [25]
OST, Campilation [28]
DTS Releases [4]
Dvd Rip [7]
DVD [7]
Lossless HTTP [54]

Rate my site
Total of answers: 17


Total online: 1
Guests: 1
Users: 0

Login form

Main » 2010 » February » 5 » Matt Bianco - Matt's Mood (2004)
23:16
Matt Bianco - Matt's Mood (2004)

Artist: Matt Bianco
Album: Matt's Mood
Released: 2004
Source: Pelican cat# pn 14114
Genre: Pop,new jazz
Format: eac-ape

Quote
Matt Bianco, in partnership with Universal Music, rejuvenated the mystical harmonies that once adorned the 80�s and brought forth �Matt�s Mood,� a unique and visionary effort brought forth by Mark Reilly, Danny White, and the seductive tones of Basia Trzetrzelewska - all whom wrote and produced this entire project the way it should have been.

Without skipping a beat, Matt Bianco continued where they ended, only leaving most of the past behind and successfully igniting the rebirth. The melodies and tempos throughout the piece are so acutely arranged, it adds a new dimension to their signature sound. Assisted through the digital age, the recordings are so crisp and project the smooth harmony fans are so used too. Jazz will embrace this with a new fascination towards the 2004 Matt Bianco.

01. Ordinary Day [0:04:39.72]
02. I Never Meant To [0:04:51.69]
03. Wrong Side Of The Street [0:04:01.40]
04. La Luna [0:04:05.10]
05. Say The Words [0:03:42.35]
06. Golden Days [0:04:25.70]
07. Ronnie's Samba [0:04:11.10]
08. Kaleidoscope [0:04:23.12]
09. Slip & Sliding [0:04:20.15]
10. Matt's Mood III [0:05:35.74]

Code
Exact Audio Copy V0.99 prebeta 3 from 28. July 2007

EAC extraction logfile from 1. July 2008, 5:44

Matt Bianco / Matt's Mood

Used drive  : Optiarc DVD RW AD-7170A   Adapter: 1  ID: 0

Read mode               : Secure
Utilize accurate stream : Yes
Defeat audio cache      : Yes
Make use of C2 pointers : No

Read offset correction                      : 48
Overread into Lead-In and Lead-Out          : No
Fill up missing offset samples with silence : Yes
Delete leading and trailing silent blocks   : No
Null samples used in CRC calculations       : Yes
Used interface                    : Installed external ASPI interface

Used output format : Internal WAV Routines
Sample format      : 44.100 Hz; 16 Bit; Stereo

TOC of the extracted CD

       Track |   Start  |  Length  | Start sector | End sector   
      ---------------------------------------------------------
          1  |  0:00.00 |  4:39.72 |         0    |    20996     
          2  |  4:39.72 |  4:51.69 |     20997    |    42890     
          3  |  9:31.66 |  4:01.40 |     42891    |    61005     
          4  | 13:33.31 |  4:05.10 |     61006    |    79390     
          5  | 17:38.41 |  3:42.35 |     79391    |    96075     
          6  | 21:21.01 |  4:25.70 |     96076    |   116020     
          7  | 25:46.71 |  4:11.10 |    116021    |   134855     
          8  | 29:58.06 |  4:23.12 |    134856    |   154592     
          9  | 34:21.18 |  4:20.15 |    154593    |   174107     
         10  | 38:41.33 |  5:35.74 |    174108    |   199306     

Range status and errors

Selected range

       Filename C:\Matt Bianco - Matt's Mood.by.rat.eac.ape.covers.Israel-club.my1.ru\Matt Bianco - Matt's Mood.by.rat.eac.ape.covers.Israel-club.my1.ru.wav

       Peak level 98.8 %
       Range quality 99.9 %
       Copy CRC BF20E6C5
       Copy OK

No errors occurred

End of status report

My WebPage

Category: Jazz | Views: 288 | Added by: Rat | Rating: 0.0/0
Total comments: 1
0   Spam
1 Ruditt   (28.02.2010 16:23)
Obrigado

Only registered users can add comments.
[ Registration | Login ]

«  February 2010  »
SuMoTuWeThFrSa
 123456
78910111213
14151617181920
21222324252627
28


  • Israel-club.my1.ru


  • Copyright MyCorp © 2017