Tuesday, 27.06.2017, 16:00
Welcome Guest | RSS
Main
Registration
Login




Vinyl [7]
Alternative [103]
Jazz [26]
Classic rock [179]
Classical [9]
Hard & Heavy [60]
Mainstream [53]
Hip-Hop [3]
Meditative [11]
New Beats [8]
Progressive [38]
Roots [25]
OST, Campilation [28]
DTS Releases [4]
Dvd Rip [7]
DVD [7]
Lossless HTTP [54]

Rate my site
Total of answers: 17


Total online: 1
Guests: 1
Users: 0

Login form

Main » 2010 » June » 11 » Matchbox Twenty - Yourself or Someone Like You (1996)
07:53
Matchbox Twenty - Yourself or Someone Like You (1996)

Artist : Matchbox Twenty
Album : Yourself or Someone Like You
Record Label : Atlantic / Wea
Quality: Eac-ape
Genre : Alternative
Year : 1996

Quote
Yourself or Someone Like You turned out to be the standard-bearer for post-alternative rock because it has a '90s sheen in its production, but, for all the world, its core sounds like classic rock. Lead singer/songwriter Rob Thomas adopted some of Eddie Vedder's vocal mannerisms, but they were smoothed out, lacking the angst and pain that were Vedder's hallmark. Matchbox Twenty functioned much the same way, picking up at Pearl Jam's fascination for album rock, but deciding to stick to the classic blueprint instead of personalizing it. All of this resulted in a record that is much more straightforward than most alt-rock albums, even if it follows the pattern of a classic '90s album -- not just in its production dynamics, but down to the acoustic-based slow number that closes the record. It blends the most familiar elements of the two golden eras of album-oriented rock, finding a balance that is comfortable for mainstream fans of either side. Other bands with similar sounds that could have done the same thing, yet Matchbox Twenty distanced themselves from the pack with sturdy songs and fairly strong hooks, all delivered forcefully with Thomas' distinctive bravado. Their music is not flashy, nor is it as ingratiating as Third Eye Blind's pop instincts. It is, however, solid, American rock, reminiscent of a blend of Petty and Pearl Jam. So, it shouldn't have been surprising when the album found a wide audience. For many observers it was still unexpected, because the sound seemed a little plain. What they didn't realize was that Yourself or Someone Like You wound up being the point where mainstream American rock stopped being willfully eccentric and returned to being unassuming and kind of ordinary. ~ Stephen Thomas Erlewine, All Music Guide


1 Real World (3:50)
2 Long Day (3:45)
3 3 A.M. (3:46)
4 Push (3:59)
5 Girl Like That (3:45)
6 Back 2 Good (5:40)
7 Damn (3:20)
8 Argue (2:58)
9 Kody (4:03)
10 Busted (4:15)
11 Shame (3:35)
12 Hang (3:47)

Code
Exact Audio Copy V0.99 prebeta 3 from 28. July 2007

EAC extraction logfile from 27. November 2007, 23:10

Matchbox Twenty / Yourself or Someone Like You

Used drive  : TSSTcorpCD/DVDW SH-W162L   Adapter: 1  ID: 1

Read mode               : Secure
Utilize accurate stream : Yes
Defeat audio cache      : Yes
Make use of C2 pointers : No

Read offset correction                      : 6
Overread into Lead-In and Lead-Out          : No
Fill up missing offset samples with silence : Yes
Delete leading and trailing silent blocks   : No
Null samples used in CRC calculations       : Yes
Used interface                    : Installed external ASPI interface

Used output format : Internal WAV Routines
Sample format      : 44.100 Hz; 16 Bit; Stereo

TOC of the extracted CD

       Track |   Start  |  Length  | Start sector | End sector   
      ---------------------------------------------------------
          1  |  0:00.32 |  3:51.60 |        32    |    17416     
          2  |  3:52.17 |  3:45.50 |     17417    |    34341     
          3  |  7:37.67 |  3:47.00 |     34342    |    51366     
          4  | 11:24.67 |  3:58.50 |     51367    |    69266     
          5  | 15:23.42 |  3:45.00 |     69267    |    86141     
          6  | 19:08.42 |  5:40.13 |     86142    |   111654     
          7  | 24:48.55 |  3:20.07 |    111655    |   126661     
          8  | 28:08.62 |  2:57.50 |    126662    |   139986     
          9  | 31:06.37 |  4:03.38 |    139987    |   158249     
         10  | 35:10.00 |  4:17.12 |    158250    |   177536     
         11  | 39:27.12 |  3:34.73 |    177537    |   193659     
         12  | 43:02.10 |  3:47.25 |    193660    |   210709     

Range status and errors

Selected range

       Filename C:\Matchbox Twenty - Yourself or Someone Like You.by.rat.eac.ape\Matchbox Twenty - Yourself or Someone Like You.wav

       Peak level 99.0 %
       Range quality 100.0 %
       Copy CRC 7602F2D7
       Copy OK

No errors occurred

End of status report

LINK

Category: Alternative | Views: 269 | Added by: Rat | Rating: 0.0/0
Total comments: 0
Only registered users can add comments.
[ Registration | Login ]

«  June 2010  »
SuMoTuWeThFrSa
  12345
6789101112
13141516171819
20212223242526
27282930


  • Israel-club.my1.ru


  • Copyright MyCorp © 2017