Saturday, 19.08.2017, 13:18
Welcome Guest | RSS
Main
Registration
Login




Vinyl [7]
Alternative [103]
Jazz [26]
Classic rock [179]
Classical [9]
Hard & Heavy [60]
Mainstream [53]
Hip-Hop [3]
Meditative [11]
New Beats [8]
Progressive [38]
Roots [25]
OST, Campilation [28]
DTS Releases [4]
Dvd Rip [7]
DVD [7]
Lossless HTTP [54]

Rate my site
Total of answers: 17


Total online: 1
Guests: 1
Users: 0

Login form

Main » 2010 » February » 5 » Manowar - Thunder In The Sky (ep) (2009)
23:25
Manowar - Thunder In The Sky (ep) (2009)

# Original Release Date: 2009
# Quality: eac - flac
# Label: Magic Circle
# Genere: HMR

Quote
Manowar is an American heavy metal band from Auburn, New York, formed in 1980. They are known for writing lyrics with an emphasis on the heavy metal genre itself, fantasy (particularly sword and sorcery), themselves and mythological topics, particularly Norse mythology. Manowar's sound is loud and bombastic; in an interview for MTV in February 2007, bassist Joey DeMaio lamented that "these days, there's a real lack of big, epic metal that is drenched with crushing guitars and choirs and orchestras ... so it's nice to be one of the few bands that's actually doing that."[1] In 1984 the band was included in the Guinness Book of World Records for delivering the loudest performance, a record which they have since broken on 2 occasions. They also hold the world record for the longest heavy metal concert after playing for 5 hours and 1 minute in Bulgaria in 2008.[2]

Although the band has never been a mainstream commercial success in the United States, they maintain a strong cult following there. In contrast, they are extremely popular in Europe and South America. Dedicated fans are known and referred to by the band as "Manowarriors" or "Immortals", and collectively their fans are known as the "Army of Immortals".

The band has sold over 9 million albums. [3]

01. Thunder In The Sky [0:04:26.03]
02. Let The Gods Decide [0:03:37.40]
03. Father [0:03:53.17]
04. Die With Honor [0:04:15.09]
05. The Crown And The Ring [0:04:59.11]
06. God Or Man [0:04:53.53]

Code

Exact Audio Copy V0.99 prebeta 4 from 23. January 2008

EAC extraction logfile from 19. August 2009, 13:10

Manowar / Thunder In The Sky

Used drive  : Optiarc DVD RW AD-7170A   Adapter: 3  ID: 0

Read mode               : Secure
Utilize accurate stream : Yes
Defeat audio cache      : Yes
Make use of C2 pointers : No

Read offset correction                      : 48
Overread into Lead-In and Lead-Out          : No
Fill up missing offset samples with silence : Yes
Delete leading and trailing silent blocks   : No
Null samples used in CRC calculations       : Yes
Used interface                    : Installed external ASPI interface

Used output format : Internal WAV Routines
Sample format      : 44.100 Hz; 16 Bit; Stereo

TOC of the extracted CD

       Track |   Start  |  Length  | Start sector | End sector   
      ---------------------------------------------------------
          1  |  0:00.00 |  4:26.03 |         0    |    19952     
          2  |  4:26.03 |  3:37.40 |     19953    |    36267     
          3  |  8:03.43 |  3:53.17 |     36268    |    53759     
          4  | 11:56.60 |  4:15.09 |     53760    |    72893     
          5  | 16:11.69 |  4:59.11 |     72894    |    95329     
          6  | 21:11.05 |  4:53.53 |     95330    |   117357     

Range status and errors

Selected range

       Filename C:\Documents and Settings\Мои документы\Manowar - Thunder In The Sky.by.rat.eac.flac.covers.Israel-club.my1.ru\Manowar - Thunder In The Sky.by.rat.eac.flac.covers.Israel-club.my1.ru.wav

       Peak level 99.5 %
       Range quality 100.0 %
       Copy CRC 198C7087
       Copy OK

No errors occurred

End of status report

Download

Category: Hard & Heavy | Views: 417 | Added by: Rat | Rating: 0.0/0
Total comments: 0
Only registered users can add comments.
[ Registration | Login ]

«  February 2010  »
SuMoTuWeThFrSa
 123456
78910111213
14151617181920
21222324252627
28


  • Israel-club.my1.ru


  • Copyright MyCorp © 2017