Tuesday, 17.10.2017, 22:28
Welcome Guest | RSS
Main
Registration
Login




Vinyl [7]
Alternative [103]
Jazz [26]
Classic rock [179]
Classical [9]
Hard & Heavy [60]
Mainstream [53]
Hip-Hop [3]
Meditative [11]
New Beats [8]
Progressive [38]
Roots [25]
OST, Campilation [28]
DTS Releases [4]
Dvd Rip [7]
DVD [7]
Lossless HTTP [54]

Rate my site
Total of answers: 17


Total online: 1
Guests: 1
Users: 0

Login form

Main » 2012 » March » 20 » Manny Charlton Band (ex-Nazareth) - Stonkin' (2000)
13:53
Manny Charlton Band (ex-Nazareth) - Stonkin' (2000)
 

Artist: MANNY CHARLTON 
Album:STONKIN 
Format:EAC.Flac 
Year: 2000 
release by rat 


Quote
http://en.wikipedia.org/wiki/Manny_Charlton 

Track Listing 

1. Pushin' Daisies ... 5:38 
2. Not Disappearing ... 7:12 
3. What U Said ... 6:29 
4. Killed My Ass ...6:27 
5. Inside My Soul ... 52 
6. The Leaving ... 8:41 
7. Twisted ...5:24 
8. Maggot I ... 42 
9. Sweet Love ... 6:28 


MCB is: 

Quote
Manny Charlton - guitars 
Shaun Michaels - vocals 
Jimmy Williams - guitars 
Mark "Sharkman" Carver - drums 
Mike Garza - bass 
All songs written arranged and played by MCB 
Recorded and mixed by Manny at MADMENTO STUDIOS AD 2000 
Additional tracking ( Maggot I & Sweet Love ) done at NOMAD STUDIOS DALLAS 
Engineer Kol Marshall 
Sleeve design and computer artwork Manny 
Band photography Dianna Karr


Code
Exact Audio Copy V1.0 beta 2 from 29. April 2011 

EAC extraction logfile from 18. March 2012, 22:13 

Manny Charlton Band / Stonkin' 

Used drive  : HL-DT-STDVD-RAM GH22NP20   Adapter: 0  ID: 0 

Read mode               : Secure 
Utilize accurate stream : Yes 
Defeat audio cache      : Yes 
Make use of C2 pointers : No 

Read offset correction                      : 102 
Overread into Lead-In and Lead-Out          : No 
Fill up missing offset samples with silence : Yes 
Delete leading and trailing silent blocks   : No 
Null samples used in CRC calculations       : Yes 
Used interface                    : Installed external ASPI interface 

Used output format : Internal WAV Routines 
Sample format      : 44.100 Hz; 16 Bit; Stereo 

TOC of the extracted CD 

      Track |   Start  |  Length  | Start sector | End sector 
     --------------------------------------------------------- 
         1  |  0:00.00 |  5:37.25 |         0    |    25299 
         2  |  5:37.25 |  7:13.70 |     25300    |    57844 
         3  | 12:51.20 |  6:29.32 |     57845    |    87051 
         4  | 19:20.52 |  6:28.45 |     87052    |   116196 
         5  | 25:49.22 |  5:03.04 |    116197    |   138925 
         6  | 30:52.26 |  8:42.34 |    138926    |   178109 
         7  | 39:34.60 |  5:23.24 |    178110    |   202358 
         8  | 44:58.09 |  4:01.17 |    202359    |   220450 
         9  | 48:59.26 |  6:28.00 |    220451    |   249550 

Range status and errors 

Selected range 

      Filename D:\Downloads\manny charlton-stonkin-2000. eac.ape.by RAT\Manny Charlton Band - Stonkin.by.wav 

      Peak level 98.8 % 
      Extraction speed 2.9 X 
      Range quality 100.0 % 
      Copy CRC 31CF0DCF 
      Copy OK 

No errors occurred 

AccurateRip summary 

Track  1  not present in database 
Track  2  not present in database 
Track  3  not present in database 
Track  4  not present in database 
Track  5  not present in database 
Track  6  not present in database 
Track  7  not present in database 
Track  8  not present in database 
Track  9  not present in database 

None of the tracks are present in the AccurateRip database 

End of status report


Manny Charlton (nazareth. Guns'n'roses)-2000
Category: Classic rock | Views: 400 | Added by: Rat | Rating: 0.0/0
Total comments: 0
Only registered users can add comments.
[ Registration | Login ]

«  March 2012  »
SuMoTuWeThFrSa
    123
45678910
11121314151617
18192021222324
25262728293031


  • Israel-club.my1.ru


  • Copyright MyCorp © 2017