Monday, 20.11.2017, 13:22
Welcome Guest | RSS
Main
Registration
Login




Vinyl [7]
Alternative [103]
Jazz [26]
Classic rock [179]
Classical [9]
Hard & Heavy [60]
Mainstream [53]
Hip-Hop [3]
Meditative [11]
New Beats [8]
Progressive [38]
Roots [25]
OST, Campilation [28]
DTS Releases [4]
Dvd Rip [7]
DVD [7]
Lossless HTTP [54]

Rate my site
Total of answers: 17


Total online: 1
Guests: 1
Users: 0

Login form

Main » 2010 » April » 1 » Manny Charlton - Americana Deluxe (2007)
20:35
Manny Charlton - Americana Deluxe (2007)

Artist : Manny Charlton
Album : Americana Deluxe
Record Label : MCB
Quality: Eac-ape
Genre : Hard'n'heavy
Year : 2007

Quote
In early 2006, Charlton joined the Swedish rock band, From Behind who also have the ex-Samson frontman Nicky Moore on vocals. From Behind released their debut album titled Game Over, and toured in support of the album around Europe.

As of 2007, Charlton is no longer part of the From Behind project. His latest solo album 'Americana Deluxe' was released early April and contains covers of classic songs such as "The Sea Of Love" and Fleetwood Mac's "Tusk". Americana Deluxe is available to buy through Charlton's official website www.mannycharlton.com.

01. Freedoms Child
02. Sea Of Love
03. Tusk
04. I Worry To Much
05. Salty, Salty
06. I Don't Have To Crawl
07. It's Been Emotional
08. Some Love Somebody
09. Desolation Road
10. Danko / Manuel
11. Crutch

Code

Exact Audio Copy V0.99 prebeta 3 from 28. July 2007

EAC extraction logfile from 22. November 2007, 9:01

Manny Charlton / Americana Deluxe

Used drive  : TSSTcorpCD/DVDW SH-W162L   Adapter: 1  ID: 1

Read mode               : Secure
Utilize accurate stream : Yes
Defeat audio cache      : Yes
Make use of C2 pointers : No

Read offset correction                      : 6
Overread into Lead-In and Lead-Out          : No
Fill up missing offset samples with silence : Yes
Delete leading and trailing silent blocks   : No
Null samples used in CRC calculations       : Yes
Used interface                    : Installed external ASPI interface

Used output format : Internal WAV Routines
Sample format      : 44.100 Hz; 16 Bit; Stereo

TOC of the extracted CD

        Track |   Start  |  Length  | Start sector | End sector    
       ---------------------------------------------------------
           1  |  0:00.00 |  4:02.36 |         0    |    18185      
           2  |  4:02.36 |  5:24.44 |     18186    |    42529      
           3  |  9:27.05 |  3:29.29 |     42530    |    58233      
           4  | 12:56.34 |  7:30.68 |     58234    |    92051      
           5  | 20:27.27 |  5:31.01 |     92052    |   116877      
           6  | 25:58.28 |  5:01.70 |    116878    |   139522      
           7  | 31:00.23 |  4:13.41 |    139523    |   158538      
           8  | 35:13.64 |  3:35.64 |    158539    |   174727      
           9  | 38:49.53 |  3:32.57 |    174728    |   190684      
          10  | 42:22.35 |  7:18.49 |    190685    |   223583      
          11  | 49:41.09 |  5:25.03 |    223584    |   247961      

Range status and errors

Selected range

        Filename C:\Manny Charlton - Americana Deluxe.2007.by.rat.eac-ape.Israel-club.my1.ru\Manny Charlton - Americana Deluxe.2007.by.rat.eac-ape.Israel-club.my1.ru..wav

        Peak level 100.0 %
        Range quality 100.0 %
        Copy CRC 3B2EFF2C
        Copy OK

No errors occurred

End of status report

LINK

Category: Classic rock | Views: 279 | Added by: Rat | Rating: 0.0/0
Total comments: 0
Only registered users can add comments.
[ Registration | Login ]

«  April 2010  »
SuMoTuWeThFrSa
    123
45678910
11121314151617
18192021222324
252627282930


  • Israel-club.my1.ru


  • Copyright MyCorp © 2017