Wednesday, 13.12.2017, 09:10
Welcome Guest | RSS
Main
Registration
Login




Vinyl [7]
Alternative [103]
Jazz [26]
Classic rock [179]
Classical [9]
Hard & Heavy [60]
Mainstream [53]
Hip-Hop [3]
Meditative [11]
New Beats [8]
Progressive [38]
Roots [25]
OST, Campilation [28]
DTS Releases [4]
Dvd Rip [7]
DVD [7]
Lossless HTTP [54]

Rate my site
Total of answers: 17


Total online: 1
Guests: 1
Users: 0

Login form

Main » 2012 » February » 1 » Lou Reed - The very best of (1999)
23:38
Lou Reed - The very best of (1999)
 

Artist:Lou Reed 
Album:The very best of 
Released: 1999 
Source: Universal 
Genre: Proto-Punk,Album Rock 
Format: eac/ape
 

Quote
Another year, another Lou Reed compilation. Or perhaps more accurately -- come the early 21st century, another year, another few Lou Reed compilations. Yes, the pace has picked up quite a bit as of recently, as evidenced by the appearance of such sets as 2000's Very Best of Lou Reed. Unfortunately, its title is quite misleading -- how can this be the "very best of" when it only focuses primarily on Reed's '70s output, and contains few selections from the '80s, and none from the '90s and beyond? True, most longtime Reed fans will admit that his '70s output was probably the best of his solo career, but still, this can't be considered a definitive best-of when such albums as New York are completely skipped over. Of course, there's no denying that there are some truly great tracks here -- "Perfect Day," "Vicious," "Ocean," "Berlin," "Satellite of Love," (and you've got to admire any Reed compilation that includes the Blue Mask obscurity, "The Gun"). Nope, not truly a very best-of, but an OK overview of Reed's solo work from 1972 though 1984.


01. Perfect day [0:03:46.62] 
02. Walk on the wild side [0:04:15.18] 
03. Vicious [0:02:57.25] 
04. Rock and roll heart [0:03:08.22] 
05. The gun [0:03:41.53] 
06. I love you, Suzanne [0:03:17.40] 
07. Caroline says II [0:04:15.47] 
08. Men of good fortune [0:04:38.43] 
09. My friend George [0:03:52.20] 
10. Lisa says [0:05:35.60] 
11. I want to boogie with you [0:03:54.60] 
12. Ocean [0:05:08.67] 
13. The last shot [0:03:24.58] 
14. I wanna be black [0:02:57.52] 
15. Sally can`t dance [0:04:12.35] 
16. Coney Island Baby [0:06:38.18] 
17. Berlin [0:03:26.60] 
18. Satellite of love [0:03:38.30]
 

Code
Exact Audio Copy V0.99 prebeta 3 from 28. July 2007 

EAC extraction logfile from 6. September 2007, 8:34 

Lou Reed / The very best of 

Used drive  : TSSTcorpCD/DVDW SH-W162L   Adapter: 1  ID: 1 

Read mode               : Secure 
Utilize accurate stream : Yes 
Defeat audio cache      : Yes 
Make use of C2 pointers : No 

Combined read/write offset correction       : 0 
Overread into Lead-In and Lead-Out          : No 
Fill up missing offset samples with silence : Yes 
Delete leading and trailing silent blocks   : No 
Null samples used in CRC calculations       : Yes 
Used interface                    : Installed external ASPI interface 

Used output format : Internal WAV Routines 
Sample format      : 44.100 Hz; 16 Bit; Stereo 

TOC of the extracted CD 

      Track |   Start  |  Length  | Start sector | End sector  
     --------------------------------------------------------- 
         1  |  0:00.00 |  3:46.62 |         0    |    17011    
         2  |  3:46.62 |  4:15.18 |     17012    |    36154    
         3  |  8:02.05 |  2:57.25 |     36155    |    49454    
         4  | 10:59.30 |  3:08.22 |     49455    |    63576    
         5  | 14:07.52 |  3:41.53 |     63577    |    80204    
         6  | 17:49.30 |  3:17.40 |     80205    |    95019    
         7  | 21:06.70 |  4:15.47 |     95020    |   114191    
         8  | 25:22.42 |  4:38.43 |    114192    |   135084    
         9  | 30:01.10 |  3:52.20 |    135085    |   152504    
        10  | 33:53.30 |  5:35.60 |    152505    |   177689    
        11  | 39:29.15 |  3:54.60 |    177690    |   195299    
        12  | 43:24.00 |  5:08.67 |    195300    |   218466    
        13  | 48:32.67 |  3:24.58 |    218467    |   233824    
        14  | 51:57.50 |  2:57.52 |    233825    |   247151    
        15  | 54:55.27 |  4:12.35 |    247152    |   266086    
        16  | 59:07.62 |  6:38.18 |    266087    |   295954    
        17  | 65:46.05 |  3:26.60 |    295955    |   311464    
        18  | 69:12.65 |  3:38.30 |    311465    |   327844    

Range status and errors 

Selected range 

      Filename C:\Lou Reed - The very best of.by.rat.eac-ape\Lou Reed - The very best of.wav 

      Peak level 98.8 % 
      Range quality 99.6 % 
      Copy CRC 850F96A0 
      Copy OK 

No errors occurred 

End of status report


Lou Reed - The very best of
Category: Alternative | Views: 370 | Added by: Rat | Rating: 0.0/0
Total comments: 0
Only registered users can add comments.
[ Registration | Login ]

«  February 2012  »
SuMoTuWeThFrSa
   1234
567891011
12131415161718
19202122232425
26272829


  • Israel-club.my1.ru


  • Copyright MyCorp © 2017