Wednesday, 13.12.2017, 09:16
Welcome Guest | RSS
Main
Registration
Login




Vinyl [7]
Alternative [103]
Jazz [26]
Classic rock [179]
Classical [9]
Hard & Heavy [60]
Mainstream [53]
Hip-Hop [3]
Meditative [11]
New Beats [8]
Progressive [38]
Roots [25]
OST, Campilation [28]
DTS Releases [4]
Dvd Rip [7]
DVD [7]
Lossless HTTP [54]

Rate my site
Total of answers: 17


Total online: 1
Guests: 1
Users: 0

Login form

Main » 2010 » October » 19 » Lisa Gerrard - Whale Rider (2003)
00:11
Lisa Gerrard - Whale Rider (2003)

year: 2003 
label: 4AD 
genre: Rock Celtic 
format: flac.cue.log 
size:224.12 MB 
extractor: EAC v095 
codec: FLAC 1.1.x 
releaser:WUF

Review by Richie Unterberger 

Quote
In collaboration with Brendan Perry, Lisa Gerrard is half of the duo Dead Can Dance, which started releasing arty goth rock on the 4AD label in the mid-'80s. Gerrard began her solo career with the 1995 release The Mirror Pool, which contained a lot of work that wouldn't fit comfortably into the DCD oeuvre. Combining these fragments with music that she composed and arranged digitally before reconfiguring them into scores that could be performed, it also draws on a composition by Handel and traditional Iranian music. Recorded and produced largely at her home in rural Australia, it extends the world music inclinations of recent Dead Can Dance albums by featuring bouzouki, tablas, and camel drums; though the somber, orchestrated pomp of Dead Can Dance is also present in her operatic, often wordless vocals, and string/woodwind passages (some of which were performed by Australia's Victorian Philharmonic Orchestra). Gerrard released her second album, Duality, written and performed with Pieter Bourke, in the spring of 1998. Gerrard composed the score for director Niki Caro's Whale Rider in 2003, followed by Immortal Memory, a collaboration with Irish composer Patrick Cassidy in 2004. Another collaboration followed in 2005, this time with composer Jeff Rona for the soundtrack to the Native American drama A Thousand Roads.

1.Paikea Legend 
2.Journey Away 
3.Rejection 
4.Biking Home 
5.Ancestors 
6.Suitcase 
7.Pai Calls The Whales 
8.Reiputa 
9.Disappointed 
10.They Came To Die 
11.Pai Theme 
12.Paikea's Whale 
13.Empty Water 
14.Waka In The Sky 
15.Go Forward

Code
EAC extraction logfile from 12. December 2006, 19:53 for CD 
Lisa Gerrard / Whale Rider 

Used drive : HL-DT-STDVD-ROM GDR8163B Adapter: 0 ID: 0 
Read mode : Secure with NO C2, accurate stream, disable cache 
Read offset correction : 102 
Overread into Lead-In and Lead-Out : No 

Used output format : C:\Archivos de programa\FLAC\flac.exe (User Defined Encoder) 
320 kBit/s 
Additional command line options : -5 -V -T "ARTIST=%a" -T "TITLE=%t" -T "ALBUM=%g" -T "DATE=%y" -T "TRACKNUMBER=%n" -T "GENRE=%m" -T "COMMENT=EAC Flac 1.1.2 -5" %s 

Other options : 
Fill up missing offset samples with silence : Yes 
Delete leading and trailing silent blocks : No 
Native Win32 interface for Win NT & 2000 

Track 1 
Filename G:\torrents\Lisa Gerrard - Whale Rider (2003) [FLAC]\disc\01 - Paikea Legend.wav 

Pre-gap length 0:00:02.00 

Peak level 74.6 % 
Track quality 100.0 % 
Test CRC 59177EED 
Copy CRC 59177EED 
Copy OK 

Track 2 
Filename G:\torrents\Lisa Gerrard - Whale Rider (2003) [FLAC]\disc\02 - Journey Away.wav 

Pre-gap length 0:00:49.52 

Peak level 98.8 % 
Track quality 100.0 % 
Test CRC F331100F 
Copy CRC F331100F 
Copy OK 

Track 3 
Filename G:\torrents\Lisa Gerrard - Whale Rider (2003) [FLAC]\disc\03 - Rejection.wav 

Peak level 51.3 % 
Track quality 99.8 % 
Test CRC 83F8DC50 
Copy CRC 83F8DC50 
Copy OK 

Track 4 
Filename G:\torrents\Lisa Gerrard - Whale Rider (2003) [FLAC]\disc\04 - Biking Home.wav 

Peak level 98.8 % 
Track quality 100.0 % 
Test CRC 735BD63B 
Copy CRC 735BD63B 
Copy OK 

Track 5 
Filename G:\torrents\Lisa Gerrard - Whale Rider (2003) [FLAC]\disc\05 - Ancestors.wav 

Peak level 60.9 % 
Track quality 99.8 % 
Test CRC 7497DE9F 
Copy CRC 7497DE9F 
Copy OK 

Track 6 
Filename G:\torrents\Lisa Gerrard - Whale Rider (2003) [FLAC]\disc\06 - Suitcase.wav 

Peak level 47.6 % 
Track quality 100.0 % 
Test CRC 9307E171 
Copy CRC 9307E171 
Copy OK 

Track 7 
Filename G:\torrents\Lisa Gerrard - Whale Rider (2003) [FLAC]\disc\07 - Pai Calls the Whales.wav 

Peak level 98.8 % 
Track quality 100.0 % 
Test CRC 7C4EE343 
Copy CRC 7C4EE343 
Copy OK 

Track 8 
Filename G:\torrents\Lisa Gerrard - Whale Rider (2003) [FLAC]\disc\08 - Reiputa.wav 

Peak level 97.6 % 
Track quality 100.0 % 
Test CRC 9AFAF806 
Copy CRC 9AFAF806 
Copy OK 

Track 9 
Filename G:\torrents\Lisa Gerrard - Whale Rider (2003) [FLAC]\disc\09 - Disappointed.wav 

Peak level 90.5 % 
Track quality 100.0 % 
Test CRC 58538F23 
Copy CRC 58538F23 
Copy OK 

Track 10 
Filename G:\torrents\Lisa Gerrard - Whale Rider (2003) [FLAC]\disc\10 - They Came to Die.wav 

Peak level 85.5 % 
Track quality 100.0 % 
Test CRC 7C778F1A 
Copy CRC 7C778F1A 
Copy OK 

Track 11 
Filename G:\torrents\Lisa Gerrard - Whale Rider (2003) [FLAC]\disc\11 - Pai Theme.wav 

Peak level 69.0 % 
Track quality 100.0 % 
Test CRC 8A00B5A0 
Copy CRC 8A00B5A0 
Copy OK 

Track 12 
Filename G:\torrents\Lisa Gerrard - Whale Rider (2003) [FLAC]\disc\12 - Paikea's Whale.wav 

Peak level 88.0 % 
Track quality 100.0 % 
Test CRC 80D4597F 
Copy CRC 80D4597F 
Copy OK 

Track 13 
Filename G:\torrents\Lisa Gerrard - Whale Rider (2003) [FLAC]\disc\13 - Empty Water.wav 

Peak level 75.8 % 
Track quality 100.0 % 
Test CRC 26C877D8 
Copy CRC 26C877D8 
Copy OK 

Track 14 
Filename G:\torrents\Lisa Gerrard - Whale Rider (2003) [FLAC]\disc\14 - Waka in the Sky.wav 

Peak level 98.8 % 
Track quality 100.0 % 
Test CRC C10E6C54 
Copy CRC C10E6C54 
Copy OK 

Track 15 
Filename G:\torrents\Lisa Gerrard - Whale Rider (2003) [FLAC]\disc\15 - Go Forward.wav 

Peak level 98.8 % 
Track quality 100.0 % 
Test CRC 944D4868 
Copy CRC 944D4868 
Copy OK 

No errors occured 

End of status report 

DOWNLOAD 
Category: Roots | Views: 621 | Added by: Rat | Rating: 0.0/0
Total comments: 0
Only registered users can add comments.
[ Registration | Login ]

«  October 2010  »
SuMoTuWeThFrSa
     12
3456789
10111213141516
17181920212223
24252627282930
31


  • Israel-club.my1.ru


  • Copyright MyCorp © 2017