Saturday, 18.11.2017, 06:27
Welcome Guest | RSS
Main
Registration
Login




Vinyl [7]
Alternative [103]
Jazz [26]
Classic rock [179]
Classical [9]
Hard & Heavy [60]
Mainstream [53]
Hip-Hop [3]
Meditative [11]
New Beats [8]
Progressive [38]
Roots [25]
OST, Campilation [28]
DTS Releases [4]
Dvd Rip [7]
DVD [7]
Lossless HTTP [54]

Rate my site
Total of answers: 17


Total online: 1
Guests: 1
Users: 0

Login form

Main » 2011 » April » 20 » Legion Of The Damned - Descent Into Chaos (2011)
08:38
Legion Of The Damned - Descent Into Chaos (2011)


Quality:EAC Rip | APE + CUE + LOG 
Size: 364 Mb 
Time:40:33 
Genre: Death/Thrash Metal 
Ripper: rd

Quote
Legion of the Damned is a thrash metal/death metal band from the Netherlands. [1] The band was formed in 2004 following the demise of Occult and the departure of former singer Rachel Heyzer. Lyrically the band tend to focus on horror motifs, dark occult and religious themes and apocalyptic events. They have recorded their albums Malevolent Rapture and Sons of the Jackal in the well known Stage One Studio with producer Andy Classen. The special edition of their 2008 release Cult of the Dead comes with an item unique in metal merchandising (and possibly all genres of music), being a cheese block emblazoned with their logo. This is a nod to their Dutch origins.

Tracklist:

1. Intro - Descent into Chaos 01:50 
2. Night of the Sabbath 03:32 
3. War in My Blood 03:35 
4. Shrapnel Rain 04:02 
5. Holy Blood, Holy War 04:14 
6. Killzone 04:02 
7. Lord of the Files 05:22 
8. Desolation Empire 04:26 
9. The Hand of Darkness 04:34 
10. Repossessed 04:53

Code
Exact Audio Copy V0.99 prebeta 5 from 4. May 2009 

EAC extraction logfile from 16. April 2011, 21:11 

Legion Of The Damned / Descent Into Chaos 

Used drive : MATSHITABD-CMB UJ242AS Adapter: 0 ID: 1 

Read mode : Secure 
Utilize accurate stream : Yes 
Defeat audio cache : Yes 
Make use of C2 pointers : No 

Read offset correction : 103 
Overread into Lead-In and Lead-Out : No 
Fill up missing offset samples with silence : Yes 
Delete leading and trailing silent blocks : No 
Null samples used in CRC calculations : Yes 
Used interface : Native Win32 interface for Win NT & 2000 

Used output format : Monkey's Audio Lossless Encoder 
Selected bitrate : Normal Lossless Compression 
Quality : High 
Add ID3 tag : Yes 
Command line compressor : C:\Program Files (x86)\Exact Audio Copy\MAC.exe 

TOC of the extracted CD 

Track | Start | Length | Start sector | End sector   
--------------------------------------------------------- 
1 | 0:00.00 | 1:50.16 | 0 | 8265   
2 | 1:50.16 | 3:32.47 | 8266 | 24212   
3 | 5:22.63 | 3:35.18 | 24213 | 40355   
4 | 8:58.06 | 4:02.46 | 40356 | 58551   
5 | 13:00.52 | 4:14.22 | 58552 | 77623   
6 | 17:14.74 | 4:02.74 | 77624 | 95847   
7 | 21:17.73 | 5:22.28 | 95848 | 120025   
8 | 26:40.26 | 4:25.72 | 120026 | 139972   
9 | 31:06.23 | 4:34.01 | 139973 | 160523   
10 | 35:40.24 | 4:52.72 | 160524 | 182495   

Range status and errors 

Selected range 

Filename C:\EACrip\Legion Of The Damned - Descent Into Chaos.wav 

Peak level 99.2 % 
Range quality 100.0 % 
Test CRC B11C53DC 
Copy CRC B11C53DC 
Copy OK 

No errors occurred 

AccurateRip summary 

Track 1 cannot be verified as accurate (confidence 2) [8BBB3BFB], AccurateRip returned [266935CF] 
Track 2 cannot be verified as accurate (confidence 2) [A34E3818], AccurateRip returned [708C8634] 
Track 3 cannot be verified as accurate (confidence 2) [F5D62F36], AccurateRip returned [916996A6] 
Track 4 cannot be verified as accurate (confidence 2) [12F203BC], AccurateRip returned [0DEB877C] 
Track 5 cannot be verified as accurate (confidence 2) [B7FB805B], AccurateRip returned [258B55EB] 
Track 6 cannot be verified as accurate (confidence 2) [5CD6F50E], AccurateRip returned [41E60E0E] 
Track 7 cannot be verified as accurate (confidence 2) [C01C0BD6], AccurateRip returned [9E1DE7D6] 
Track 8 cannot be verified as accurate (confidence 2) [F66D9480], AccurateRip returned [BBA4CC50] 
Track 9 cannot be verified as accurate (confidence 2) [6703DD8F], AccurateRip returned [65E6904F] 
Track 10 cannot be verified as accurate (confidence 2) [1152D420], AccurateRip returned [33C7C0E0] 

No tracks could be verified as accurate 
You may have a different pressing from the one(s) in the database 

End of status report

http://www.filesonic.com/file/718655224/110417LOD11A.part1.rar 
http://www.filesonic.com/file/718655814/110417LOD11A.part2.rar

http://ifolder.ru/23026575 
http://ifolder.ru/23026576

http://www.fileserve.com/file/Fpzuk6X/110417LOD11A.part1.rar 
http://www.fileserve.com/file/9h7Dkdc/110417LOD11A.part2.rar

Category: Lossless HTTP | Views: 225 | Added by: Rat | Rating: 0.0/0
Total comments: 0
Only registered users can add comments.
[ Registration | Login ]

«  April 2011  »
SuMoTuWeThFrSa
     12
3456789
10111213141516
17181920212223
24252627282930


  • Israel-club.my1.ru


  • Copyright MyCorp © 2017