Thursday, 20.07.2017, 16:43
Welcome Guest | RSS
Main
Registration
Login




Vinyl [7]
Alternative [103]
Jazz [26]
Classic rock [179]
Classical [9]
Hard & Heavy [60]
Mainstream [53]
Hip-Hop [3]
Meditative [11]
New Beats [8]
Progressive [38]
Roots [25]
OST, Campilation [28]
DTS Releases [4]
Dvd Rip [7]
DVD [7]
Lossless HTTP [54]

Rate my site
Total of answers: 17


Total online: 1
Guests: 1
Users: 0

Login form

Main » 2010 » February » 5 » Kitaro - Best Of Volume 2 (1999)
23:15
Kitaro - Best Of Volume 2 (1999)

Artist: Kitaro
Album: Best Of Volume 2
Released: 1999
Genre: New Age
Format: eac-ape.covers

Quote
Kitaro's style is the epitome of the contemplative, highly melodic synthesizer music often associated with the new-age movement. Interestingly enough, this famous Japanese composer taught himself to play electric guitar in high school -- inspired by the R&B music of Otis Redding. In the early '70s, Kitaro formed the Far East Family Band, which released two albums of progressive rock. In 1972, however, he met the innovative German synthesist Klaus Schulze during a trip to Europe. Kitaro was hooked. He built his first synthesizer and began experimenting with all kinds of unusual sounds. His first solo album, Astral Voyage, appeared in 1978 and quickly gained a cult following. Two years later, he produced the first of several ...

01. Tenku [0:04:17.57]
02. The Field [0:04:52.00]
03. Koi [0:06:32.10]
04. Lady of Dreams [0:08:25.65]
05. Dance of Sarasvati [0:06:46.63]
06. The bottom of the Sky [0:07:21.30]
07. Gaia [0:07:26.62]
08. Heaven and Earth [0:11:49.63]
09. A la Nanita Nana [0:05:17.72]
10. Echoing Wall [0:04:38.05]

Code
Exact Audio Copy V0.99 prebeta 3 from 28. July 2007

EAC extraction logfile from 26. February 2008, 20:41

Kitaro / Best Of Volume 2

Used drive  : TSSTcorpCD/DVDW SH-W162L   Adapter: 1  ID: 1

Read mode               : Secure
Utilize accurate stream : Yes
Defeat audio cache      : Yes
Make use of C2 pointers : No

Read offset correction                      : 6
Overread into Lead-In and Lead-Out          : No
Fill up missing offset samples with silence : Yes
Delete leading and trailing silent blocks   : No
Null samples used in CRC calculations       : Yes
Used interface                    : Installed external ASPI interface

Used output format : Internal WAV Routines
Sample format      : 44.100 Hz; 16 Bit; Stereo

TOC of the extracted CD

       Track |   Start  |  Length  | Start sector | End sector   
      ---------------------------------------------------------
          1  |  0:00.00 |  4:17.57 |         0    |    19331     
          2  |  4:17.57 |  4:52.00 |     19332    |    41231     
          3  |  9:09.57 |  6:32.10 |     41232    |    70641     
          4  | 15:41.67 |  8:25.65 |     70642    |   108581     
          5  | 24:07.57 |  6:46.63 |    108582    |   139094     
          6  | 30:54.45 |  7:21.30 |    139095    |   172199     
          7  | 38:16.00 |  7:26.62 |    172200    |   205711     
          8  | 45:42.62 | 11:49.63 |    205712    |   258949     
          9  | 57:32.50 |  5:17.72 |    258950    |   282796     
         10  | 62:50.47 |  4:38.05 |    282797    |   303651     

Range status and errors

Selected range

       Filename C:\Kitaro.-.Best.Of.Volume.2.by.rat.eac.ape.covers.Israel-club.my1.ru\Kitaro.-.Best.Of.Volume.2.by.rat.eac.ape.covers.Israel-club.my1.ru.wav    

       Peak level 98.4 %
       Range quality 100.0 %
       Copy CRC C7090A56
       Copy OK

No errors occurred

End of status report

link

Category: Meditative | Views: 389 | Added by: Rat | Rating: 0.0/0
Total comments: 0
Only registered users can add comments.
[ Registration | Login ]

«  February 2010  »
SuMoTuWeThFrSa
 123456
78910111213
14151617181920
21222324252627
28


  • Israel-club.my1.ru


  • Copyright MyCorp © 2017