Saturday, 19.08.2017, 07:30
Welcome Guest | RSS
Main
Registration
Login




Vinyl [7]
Alternative [103]
Jazz [26]
Classic rock [179]
Classical [9]
Hard & Heavy [60]
Mainstream [53]
Hip-Hop [3]
Meditative [11]
New Beats [8]
Progressive [38]
Roots [25]
OST, Campilation [28]
DTS Releases [4]
Dvd Rip [7]
DVD [7]
Lossless HTTP [54]

Rate my site
Total of answers: 17


Total online: 1
Guests: 1
Users: 0

Login form

Main » 2010 » October » 24 » Kim Wilde - Come Out And Play (2010)
17:13
Kim Wilde - Come Out And Play (2010)

Artist: Kim Wilde 
Album: Come Out And Play 
Released: 2010 
Genre: pop 
Format:eac-ape-covers

Quote
Come Out and Play is the eleventh studio album by Kim Wilde, released in 2010. The track, "Lights Down Low" was released as the album's lead-single, reaching No.34 in Germany. A second single, "Real Life" is due for release. 

01. King Of The World [0:03:31.58] 
02. Lights Down Low [0:03:00.42] 
03. Real Life [0:03:56.05] 
04. Greatest Journey [0:03:49.38] 
Duet with Glenn Gregory (Heaven 17) 
05. I Want What I Want [0:03:08.68] 
06. Love Conquers All [0:03:58.43] 
Feat. Nik Kershaw

07. Hey! You! [0:03:13.39] 
08. Suicide [0:02:42.18] 
09. This Paranoia [0:02:49.34] 
10. Loving You More [0:04:02.33] 
11. Get Out [0:03:48.21] 
12. My Wish Is Your Command [0:03:34.41] 
13. Jessica [0:01:21.17] 

Code
Exact Audio Copy V0.99 prebeta 4 from 23. January 2008 

EAC extraction logfile from 23. October 2010, 8:02 

Kim Wilde / Come Out And Play 

Used drive  : Optiarc DVD RW AD-7170A   Adapter: 3  ID: 0 

Read mode               : Secure 
Utilize accurate stream : Yes 
Defeat audio cache      : Yes 
Make use of C2 pointers : No 

Read offset correction                      : 48 
Overread into Lead-In and Lead-Out          : No 
Fill up missing offset samples with silence : Yes 
Delete leading and trailing silent blocks   : No 
Null samples used in CRC calculations       : Yes 
Used interface                    : Installed external ASPI interface 

Used output format : Internal WAV Routines 
Sample format      : 44.100 Hz; 16 Bit; Stereo 

TOC of the extracted CD 

      Track |   Start  |  Length  | Start sector | End sector  
     --------------------------------------------------------- 
         1  |  0:00.00 |  3:31.58 |         0    |    15882    
         2  |  3:31.58 |  3:00.42 |     15883    |    29424    
         3  |  6:32.25 |  3:56.05 |     29425    |    47129    
         4  | 10:28.30 |  3:49.38 |     47130    |    64342    
         5  | 14:17.68 |  3:08.68 |     64343    |    78510    
         6  | 17:26.61 |  3:58.43 |     78511    |    96403    
         7  | 21:25.29 |  3:13.39 |     96404    |   110917    
         8  | 24:38.68 |  2:42.18 |    110918    |   123085    
         9  | 27:21.11 |  2:49.34 |    123086    |   135794    
        10  | 30:10.45 |  4:02.33 |    135795    |   153977    
        11  | 34:13.03 |  3:48.21 |    153978    |   171098    
        12  | 38:01.24 |  3:34.41 |    171099    |   187189    
        13  | 41:35.65 |  1:21.17 |    187190    |   193281    

Range status and errors 

Selected range 

      Filename C:\Documents and Settings\Мои документы\Kim Wilde - Come Out And Play.eac.covers.by.rat.lossless-muz.ucoz.com\Kim Wilde - Come Out And Play.eac.covers.by.rat.lossless-muz.ucoz.wav 

      Peak level 99.9 % 
      Range quality 100.0 % 
      Copy CRC E21C46B0 
      Copy OK 

No errors occurred 

End of status report 

Download 
Category: Mainstream | Views: 248 | Added by: Rat | Rating: 0.0/0
Total comments: 0
Only registered users can add comments.
[ Registration | Login ]

«  October 2010  »
SuMoTuWeThFrSa
     12
3456789
10111213141516
17181920212223
24252627282930
31


  • Israel-club.my1.ru


  • Copyright MyCorp © 2017