Wednesday, 23.08.2017, 04:07
Welcome Guest | RSS
Main
Registration
Login




Vinyl [7]
Alternative [103]
Jazz [26]
Classic rock [179]
Classical [9]
Hard & Heavy [60]
Mainstream [53]
Hip-Hop [3]
Meditative [11]
New Beats [8]
Progressive [38]
Roots [25]
OST, Campilation [28]
DTS Releases [4]
Dvd Rip [7]
DVD [7]
Lossless HTTP [54]

Rate my site
Total of answers: 17


Total online: 1
Guests: 1
Users: 0

Login form

Main » 2011 » July » 20 » Kate Bush - Director's Cut (2011)
22:18
Kate Bush - Director's Cut (2011)

album: Director's Cut 
genre: Art-Rock, Pop-Rock, Alternative 
lablel: Fish People 
year: 2011 
formatт: FLAC 
Quality: Lossless

Quote
Kate Bush has announced that she will be releasing Director's Cut, her first album in six years, on May 16th. The record will be comprised of rerecorded, reworked and otherwise altered versions of songs from two previous albums, 1989's The Sensual World and 1993's The Red Shoes. Details about these new tracks have not been revealed, but Bush's statement says that the Director's Cut versions keep "the best musical performances of each song." 
Director's Cut will be released digitally, as a CD in a case-bound book, a vinyl double album, and as a CD box set containing the new disc along with the original versions of The Sensual World and The Red Shoes 

Tracklist: 
---------------- 
01. Flower Of The Mountain [5:15] 
02. Song Of Solomon [4:45] 
03. Lily [4:05] 
04. Deeper Understanding [6:33] 
05. The Red Shoes [4:58] 
06. This Woman´s Work [6:30] 
07. Moments Of Pleasure [6:32] 
08. Never Be Mine [5:05] 
09. Top Of The City [4:24] 
10. And So Is Love [4:21] 
11. Rubberband Girl [4:37] 
-------------------------- 
Total time [00:57:04]

Code
Exact Audio Copy V0.99 prebeta 4 from 23. January 2008 

EAC extraction logfile from 22. May 2011, 15:45 

Kate Bush / Director's Cut 

Used drive  : HL-DT-STDVD-RAM GH22NP20   Adapter: 3  ID: 0 

Read mode               : Secure 
Utilize accurate stream : Yes 
Defeat audio cache      : Yes 
Make use of C2 pointers : No 

Read offset correction                      : 102 
Overread into Lead-In and Lead-Out          : Yes 
Fill up missing offset samples with silence : Yes 
Delete leading and trailing silent blocks   : No 
Null samples used in CRC calculations       : Yes 
Used interface                    : Installed external ASPI interface 

Used output format : Internal WAV Routines 
Sample format      : 44.100 Hz; 16 Bit; Stereo 

TOC of the extracted CD 

       Track |   Start  |  Length  | Start sector | End sector   
      --------------------------------------------------------- 
          1  |  0:00.00 |  5:15.03 |         0    |    23627     
          2  |  5:15.03 |  4:44.67 |     23628    |    44994     
          3  |  9:59.70 |  4:04.45 |     44995    |    63339     
          4  | 14:04.40 |  6:33.36 |     63340    |    92850     
          5  | 20:38.01 |  4:58.04 |     92851    |   115204     
          6  | 25:36.05 |  6:29.42 |    115205    |   144421     
          7  | 32:05.47 |  6:31.54 |    144422    |   173800     
          8  | 38:37.26 |  5:05.24 |    173801    |   196699     
          9  | 43:42.50 |  4:23.39 |    196700    |   216463     
         10  | 48:06.14 |  4:20.46 |    216464    |   236009     
         11  | 52:26.60 |  4:36.52 |    236010    |   256761     

Range status and errors 

Selected range 

       Filename C:\Documents and Settings\Мои документы\Kate Bush - Director's Cut.flac.covers.by.rat.lossless-muz.ucoz.com\Kate Bush - Director's Cut.flac.covers.by.rat.lossless-muz.ucoz.wav 

       Peak level 100.0 % 
       Range quality 100.0 % 
       Copy CRC 9B630571 
       Copy OK 

No errors occurred 

     
AccurateRip summary 
     
Track  1  not present in database 
Track  2  not present in database 
Track  3  not present in database 
Track  4  not present in database 
Track  5  not present in database 
Track  6  not present in database 
Track  7  not present in database 
Track  8  not present in database 
Track  9  not present in database 
Track 10  not present in database 
Track 11  not present in database 
     
None of the tracks are present in the AccurateRip database 

End of status report 

download
Category: Progressive | Views: 341 | Added by: Rat | Rating: 0.0/0
Total comments: 0
Only registered users can add comments.
[ Registration | Login ]

«  July 2011  »
SuMoTuWeThFrSa
     12
3456789
10111213141516
17181920212223
24252627282930
31


  • Israel-club.my1.ru


  • Copyright MyCorp © 2017