Saturday, 19.08.2017, 07:27
Welcome Guest | RSS
Main
Registration
Login




Vinyl [7]
Alternative [103]
Jazz [26]
Classic rock [179]
Classical [9]
Hard & Heavy [60]
Mainstream [53]
Hip-Hop [3]
Meditative [11]
New Beats [8]
Progressive [38]
Roots [25]
OST, Campilation [28]
DTS Releases [4]
Dvd Rip [7]
DVD [7]
Lossless HTTP [54]

Rate my site
Total of answers: 17


Total online: 1
Guests: 1
Users: 0

Login form

Main » 2010 » October » 19 » Kamelot - Dominion (1997)
23:04
Kamelot - Dominion (1997)

Genre:Melodic Power Metal 
Quality: EAC Rip - WAVPack + Cue + Log 
Scans: Included 
Label: Sanctuary

Quote
"Dominion" is the second album of Kamelot and the last with Mark Vanderbilt on vocals and Richard Warner on drums. The band uses the same music approach as in the first album, "Eternity". The album is not more mature than "Eternity", it could be titled as a sibling to that album. Probably most of the tracks of the two albums were composed at the same period of time.

On one hand it's a solid album. It has a specified music structure and it doesn't move away from it. The compositions are varied and influenced by classical melodies (Ascension, One day I'll win intro). Plus the songs are a little bit progressive. Also the band's performance is nice and stable, especially Youngblood riffs and solos, but the truth is that it could be better.

On the other hand the lyrics are in a way "dry". All the lyrics, written by Warner describing war themes including heroes, wars in their majority, are like a story telling but rather boring I must admit. They can not be compared with Khan lyrics at all. But there are some exceptions here like "Heaven" and "We are not separate". Also the production of the album is average. The album was recorded at the Morrisound Studios, just as the first album was.

In conclusion, Dominion is an average album. Not as strong as its sibling, "Eternity" since there are no tracks like "Black Tower", "Call of the sea" , "What about me", but when you make the "second" step of your career it's normal to still seek your music personality that describes you as a band and make mistakes. Must listen songs are "Heaven", "One day I'll win", "We are not separate".

Tracklist:

01. Ascension (1:25) 
02. Heaven (3:40) 
03. Rise Again (4:07) 
04. One Day I'll Win (5:39) 
05. We Are Not Separate (3:46) 
06. Birth Of A Hero (5:17) 
07. Creation (5:06) 
08. Sin (3:36) 
09. Song Of Roland (4:54) 
10. Crossing Two Rivers (4:29) 
11. Troubled Mind (4:40)

Line-up:

Mark Vanderbilt – lead vocals 
Thomas Youngblood – guitar, backing vocals 
David Pavlicko – keyboards 
Glenn Barry – bass guitar 
Richard Warner – drums

Code
EAC extraction logfile from 29. July 2007, 11:09 for CD 
Kamelot / Dominion 

Used drive : PLEXTOR DVD-ROM PX-116A2 Adapter: 0 ID: 2 
Read mode : Secure with NO C2, accurate stream, disable cache 
Read offset correction : 102 
Overread into Lead-In and Lead-Out : No 

Used output format : Internal WAV Routines 
44.100 Hz; 16 Bit; Stereo 

Other options :  
Fill up missing offset samples with silence : Yes 
Delete leading and trailing silent blocks : No 
Installed external ASPI interface 

Track 1 
Filename D:\01 - Ascension.wav 

Pre-gap length 0:00:02.00 

Peak level 100.0 % 
Track quality 100.0 % 
Test CRC E507691B 
Copy CRC E507691B 
Copy OK 

Track 2 
Filename D:\02 - Heaven.wav 

Peak level 100.0 % 
Track quality 100.0 % 
Test CRC 1C0B2926 
Copy CRC 1C0B2926 
Copy OK 

Track 3 
Filename D:\03 - Rise Again.wav 

Peak level 100.0 % 
Track quality 100.0 % 
Test CRC CB3FC575 
Copy CRC CB3FC575 
Copy OK 

Track 4 
Filename D:\04 - One Day I'll Win.wav 

Peak level 100.0 % 
Track quality 99.9 % 
Test CRC 216AED08 
Copy CRC 216AED08 
Copy OK 

Track 5 
Filename D:\05 - We Are Not Separate.wav 

Peak level 100.0 % 
Track quality 100.0 % 
Test CRC FF5234A1 
Copy CRC FF5234A1 
Copy OK 

Track 6 
Filename D:\06 - Birth Of A Hero.wav 

Peak level 100.0 % 
Track quality 100.0 % 
Test CRC 1516DAF8 
Copy CRC 1516DAF8 
Copy OK 

Track 7 
Filename D:\07 - Creation.wav 

Peak level 100.0 % 
Track quality 99.9 % 
Test CRC 4862DAFE 
Copy CRC 4862DAFE 
Copy OK 

Track 8 
Filename D:\08 - Sin.wav 

Peak level 100.0 % 
Track quality 100.0 % 
Test CRC 5281C106 
Copy CRC 5281C106 
Copy OK 

Track 9 
Filename D:\09 - Song Of Roland.wav 

Peak level 100.0 % 
Track quality 100.0 % 
Test CRC 54F979A1 
Copy CRC 54F979A1 
Copy OK 

Track 10 
Filename D:\10 - Crossing Two Rivers.wav 

Peak level 100.0 % 
Track quality 99.9 % 
Test CRC 9B637C38 
Copy CRC 9B637C38 
Copy OK 

Track 11 
Filename D:\11 - Troubled Mind.wav 

Peak level 100.0 % 
Track quality 100.0 % 
Test CRC 875554D9 
Copy CRC 875554D9 
Copy OK 

No errors occured 

End of status report

http://www.filesonic.com/file/25512557/kmlt97d.part1.rar 
http://www.filesonic.com/file/25512727/kmlt97d.part2.rar 
http://www.filesonic.com/file/25512483/kmlt97d.part3.rar

mirror

http://www.fileserve.com/file/ZXX8b8A 
http://www.fileserve.com/file/htqfnSJ 
http://www.fileserve.com/file/8f6G3m9

Category: Lossless HTTP | Views: 246 | Added by: Rat | Rating: 0.0/0
Total comments: 0
Only registered users can add comments.
[ Registration | Login ]

«  October 2010  »
SuMoTuWeThFrSa
     12
3456789
10111213141516
17181920212223
24252627282930
31


  • Israel-club.my1.ru


  • Copyright MyCorp © 2017