Friday, 18.08.2017, 18:30
Welcome Guest | RSS
Main
Registration
Login




Vinyl [7]
Alternative [103]
Jazz [26]
Classic rock [179]
Classical [9]
Hard & Heavy [60]
Mainstream [53]
Hip-Hop [3]
Meditative [11]
New Beats [8]
Progressive [38]
Roots [25]
OST, Campilation [28]
DTS Releases [4]
Dvd Rip [7]
DVD [7]
Lossless HTTP [54]

Rate my site
Total of answers: 17


Total online: 1
Guests: 1
Users: 0

Login form

Main » 2010 » June » 11 » Kajagoogoo - White Feathers (1982/1993)
16:00
Kajagoogoo - White Feathers (1982/1993)

Label: One Way Records (USA)
Catalog#: S21-17608
Format: CD, Album
Country: US
Released: 1982 (1993)
Genre: Electronic
Style: New Wave, Synth-pop

Quote
Kajagoogoo's light synth pop and pretty, photogenic look made the group an instant sensation in the early days of MTV. Led by vocalist Limahl (born Chris Hamill), the group also featured Steve Askew (guitar), Nick Beggs (vocals, bass), and Stuart Crawford (vocals, synthesizer). Produced by Duran Duran's Nick Rhodes, Kajagoogoo's debut single "Too Shy" hit number one in the U.K. in early 1983; it peaked at number five in the U.S. "Too Shy" and the following album White Feathers proved the band may have shared some similarities with Duran Duran and Naked Eyes -- they were pretty and played immediately accessible, polished pop -- yet Kajagoogoo was essentially a synth pop variation of a bubblegum group. Like a bubblegum group, they were destined to have only one big hit; "Ooh to Be Ah" and "Hang on Now" both were Top 15 U.K. hits, yet neither made an impact in the U.S. At the end of the 1983, Limahl left for a solo career. Kajagoogoo continued with Nick Beggs as the lead vocalist, releasing Islands in 1984; it disappeared from the charts quickly. Meanwhile, Limahl scored a hit with the theme song from The Neverending Story. Perhaps in an attempt to gain some credibility, the group shortened their name to Kaja and released Crazy People's Right to Speak. It was a sales disaster and the band broke up the following year. Limahl continued to record, albeit without much chart success; eventually, his records were not released in either the U.S. or the U.K. -- his last album, 1992's Love Is Blind, was only released in Germany. ~ Stephen Thomas Erlewine, All Music Guide

Code
Exact Audio Copy V0.99 prebeta 4 from 23. January 2008

EAC extraction logfile from 10. June 2010, 15:29

Kajagoogoo / White Feathers

Used drive  : Optiarc DVD RW AD-7170A   Adapter: 3  ID: 0

Read mode               : Secure
Utilize accurate stream : Yes
Defeat audio cache      : Yes
Make use of C2 pointers : No

Read offset correction                      : 48
Overread into Lead-In and Lead-Out          : No
Fill up missing offset samples with silence : Yes
Delete leading and trailing silent blocks   : No
Null samples used in CRC calculations       : Yes
Used interface                    : Installed external ASPI interface

Used output format : Internal WAV Routines
Sample format      : 44.100 Hz; 16 Bit; Stereo

TOC of the extracted CD

      Track |   Start  |  Length  | Start sector | End sector  
     ---------------------------------------------------------
         1  |  0:00.32 |  3:40.73 |        32    |    16604    
         2  |  3:41.30 |  3:28.47 |     16605    |    32251    
         3  |  7:10.02 |  2:53.73 |     32252    |    45299    
         4  | 10:04.00 |  3:42.52 |     45300    |    62001    
         5  | 13:46.52 |  3:13.70 |     62002    |    76546    
         6  | 17:00.47 |  3:16.45 |     76547    |    91291    
         7  | 20:17.17 |  3:28.38 |     91292    |   106929    
         8  | 23:45.55 |  3:33.27 |    106930    |   122931    
         9  | 27:19.07 |  3:12.63 |    122932    |   137394    
        10  | 30:31.70 |  4:15.10 |    137395    |   156529    

Range status and errors

Selected range

      Filename C:\Documents and Settings\Мои документы\Kajagoogoo - White Feathers.by.rat.eac.ape.covers.lossless-muz.ucoz.com\Kajagoogoo - White Feathers.by.rat.eac.ape.covers.lossless-muz.ucoz.wav

      Peak level 93.3 %
      Range quality 99.9 %
      Copy CRC 7CEE2E25
      Copy OK

No errors occurred

End of status report

DOWNLOAD

Category: Mainstream | Views: 353 | Added by: Rat | Rating: 0.0/0
Total comments: 0
Only registered users can add comments.
[ Registration | Login ]

«  June 2010  »
SuMoTuWeThFrSa
  12345
6789101112
13141516171819
20212223242526
27282930


  • Israel-club.my1.ru


  • Copyright MyCorp © 2017