Sunday, 25.06.2017, 10:56
Welcome Guest | RSS
Main
Registration
Login




Vinyl [7]
Alternative [103]
Jazz [26]
Classic rock [179]
Classical [9]
Hard & Heavy [60]
Mainstream [53]
Hip-Hop [3]
Meditative [11]
New Beats [8]
Progressive [38]
Roots [25]
OST, Campilation [28]
DTS Releases [4]
Dvd Rip [7]
DVD [7]
Lossless HTTP [54]

Rate my site
Total of answers: 17


Total online: 7
Guests: 7
Users: 0

Login form

Main » 2011 » April » 15 » John Watts - One More Twist (1982/2000)
15:17
John Watts - One More Twist (1982/2000)


Audio CD (March 1, 2000) 
Number of Discs: 1 
Format: Eac-flac 
Label: Emi/Emi Plus

Quote
.. came this truly wonderful album. I'm a big fan of Fischer Z, I like all their early albums and this offerring continued that work, with a more stripped-back, raw approach to the arrangements. Speaking a Different Language is one of my all-time favourite songs and typifies the energy and power of this album. Every track is so strong that it is hard to pick highlights. If you love Fischer Z's early albums, you will adore this.

01. One Voice [0:03:49.10] 
02. Lagonda Lifestyle [0:04:57.34] 
03. Watching You [0:04:03.09] 
04. Carousel [0:03:37.48] 
05. That's Enough For Me [0:03:54.57] 
06. I Know It Now [0:03:52.50] 
07. Victims Of Fashion [0:04:00.44] 
08. Speaking A Different Language [0:04:20.25] 
09. Involuntary Movement [0:02:57.53] 
10. Relax [0:04:51.68]

Code
Exact Audio Copy V1.0 beta 1 from 15. November 2010 

EAC extraction logfile from 15. April 2011, 2:16 

John Watts / One More Twist 

Used drive  : TSSTcorpCDDVDW SH-S223C   Adapter: 3  ID: 0 

Read mode               : Secure 
Utilize accurate stream : Yes 
Defeat audio cache      : Yes 
Make use of C2 pointers : No 

Read offset correction                      : 697 
Overread into Lead-In and Lead-Out          : Yes 
Fill up missing offset samples with silence : Yes 
Delete leading and trailing silent blocks   : No 
Null samples used in CRC calculations       : Yes 
Used interface                    : Native Win32 interface for Win NT & 2000 

Used output format : Internal WAV Routines 
Sample format      : 44.100 Hz; 16 Bit; Stereo 

TOC of the extracted CD 

      Track |   Start  |  Length  | Start sector | End sector  
     --------------------------------------------------------- 
         1  |  0:00.00 |  3:49.10 |         0    |    17184    
         2  |  3:49.10 |  4:57.34 |     17185    |    39493    
         3  |  8:46.44 |  4:03.09 |     39494    |    57727    
         4  | 12:49.53 |  3:37.48 |     57728    |    74050    
         5  | 16:27.26 |  3:54.57 |     74051    |    91657    
         6  | 20:22.08 |  3:52.50 |     91658    |   109107    
         7  | 24:14.58 |  4:00.44 |    109108    |   127151    
         8  | 28:15.27 |  4:20.25 |    127152    |   146676    
         9  | 32:35.52 |  2:57.53 |    146677    |   160004    
        10  | 35:33.30 |  4:51.68 |    160005    |   181897    

Range status and errors 

Selected range 

      Filename C:\Users\tvno\Music\John Watts - One More Twist.eac.flac.byrat\John Watts - One More Twist.eac.flac.by.wav 

      Peak level 97.7 % 
      Extraction speed 0.3 X 
      Range quality 100.0 % 
      Copy CRC 9B293EB0 
      Copy OK 

No errors occurred 

End of status report

download
Category: Alternative | Views: 242 | Added by: Rat | Rating: 0.0/0
Total comments: 0
Only registered users can add comments.
[ Registration | Login ]

«  April 2011  »
SuMoTuWeThFrSa
     12
3456789
10111213141516
17181920212223
24252627282930


  • Israel-club.my1.ru


  • Copyright MyCorp © 2017