Sunday, 25.06.2017, 10:57
Welcome Guest | RSS
Main
Registration
Login




Vinyl [7]
Alternative [103]
Jazz [26]
Classic rock [179]
Classical [9]
Hard & Heavy [60]
Mainstream [53]
Hip-Hop [3]
Meditative [11]
New Beats [8]
Progressive [38]
Roots [25]
OST, Campilation [28]
DTS Releases [4]
Dvd Rip [7]
DVD [7]
Lossless HTTP [54]

Rate my site
Total of answers: 17


Total online: 3
Guests: 3
Users: 0

Login form

Main » 2011 » April » 15 » John Waite - Rough & Tumble (2011)
17:02
John Waite - Rough & Tumble (2011)

[b]Audio CD (2011) 
Number of Discs: 1 
Format: Eac-flac 
Genre: AOR/Hard r
ock[/b]

Quote
Hey! We recently let y’all know that Kyle had been writing and producing for John Waite’s new album Rough & Tumble. Well, the album is now available! Seen as I download anything that moves, I got myself on iTunes and clicked away. I have to tell you, these songs are good, really good. 
The album is good mix of rock (with classic rock touches), country and ballads and on the whole, it’s a good album. To be honest it was a lot better than I was expecting. There are some good tracks like ‘Rough & Tumble’, ‘Skyward’ and ‘Sweet Rhode Island Red’ but – and I’m not just saying this – it’s the songs Kyle was involved in that stand out. 
If you’ve kept up with Kyle’s MySpace and have The New Left EP, then you will hear Kyle all over these songs. From the obvious backing vocals and style of guitar playing to the country influences that make an appearance, these tracks could be Kyle’s. 
Let’s be honest with ourselves, were all here for what Kyle’s had his hands on, so let’s go: 
‘Evil’ is a great track. It starts off with a Dire Straits style intro that evolves into a ‘70s funk, dance floor groove. For anyone familiar with Jamiroquai, you’ll know what I mean. It will have your head nodding that’s for sure. 
‘Love’s Going Out of Style’ is probably the hardest first listen out of the four songs but is worth sticking with. It has that same disjointed feel that The New Left could do so well. If you have Let Go then listen to ‘The Dotted Line’ and ‘Tease Me’ and you’ll know what I’m getting at. Great song with a great a hook that you might need to warm up to but once you do, you’ll be singing that chorus all day. I think I can hear The Beatles in there too. 
‘Better Off Gone’ is another chameleon of a song. Starting off with an intro similar to ‘Life In The Fast Lane’ by The Eagles, it morphs into a song that would play easily on country radio. It also has that nice end of summer, Counting Crows feel to it too. For all Counting Crows fans that like Hard Candy, you’ll like this. 
But for me, ‘If You Ever Get Lonely’ is where it all happens. If you need a reference point think, The Difference, These Hard Times and Wind Up Girl (The New Left). Plus, if you’re a Train fan, get this song! It’s a beautiful ballad about a love that was lost but nowhere near forgotten. For anyone who has lost someone who you’ve not stopped loving and who you’ll never give up on, this song is for you. We talk a lot about Rob being able to get to the heart of the matter, and it’s for sure that he does, but this song gives him a run for his money. Out off all the songs on the record, it is the most emotionally driven song and it’s the one that hits the nail right on the head. Great music, great melody and the most easily accessible song on the album, it’s easily a single and one you’ll all love I’m sure. 
If you are only interested in the songs Kyle has been involved in, then you should get these tracks because you won’t be disappointed. But if you really like what you hear and want to hear more, then the whole album’s worth getting. Just keep in mind that John Waite and Kyle Cook aren’t Rob Thomas, so don’t expect Cradlesong! 
It’s available now on CD and download, so spent a few bucks (if you have it to spare that is) and get some great songs!

01. 01 - Rough & Tumble [0:04:22.60] 
02. 02 - Shadows Of Love [0:04:03.00] 
03. 03 - Evil [0:04:02.70] 
04. 04 - If You Ever Get Lonely [0:03:55.57] 
05. 05 - Skyward [0:04:09.33] 
06. 06 - Sweet Rhode Island Red [0:03:49.18] 
07. 07 - Love's Goin' Out Of Style [0:04:46.70] 
08. 08 - Better Off Gone [0:03:52.24] 
09. 09 - Further The Sky [0:04:47.61] 
10. 10 - Peace Of Mind [0:04:37.34] 
11. 11 - Mr. Wonderful [0:04:22.46] 
12. 12 - Hanging Tree [0:03:21.18]

Code
Exact Audio Copy V1.0 beta 1 from 15. November 2010 

EAC extraction logfile from 15. April 2011, 2:53 

John Waite / Rough & Tumble 

Used drive  : TSSTcorpCDDVDW SH-S223C   Adapter: 3  ID: 0 

Read mode               : Secure 
Utilize accurate stream : Yes 
Defeat audio cache      : Yes 
Make use of C2 pointers : No 

Read offset correction                      : 697 
Overread into Lead-In and Lead-Out          : Yes 
Fill up missing offset samples with silence : Yes 
Delete leading and trailing silent blocks   : No 
Null samples used in CRC calculations       : Yes 
Used interface                    : Native Win32 interface for Win NT & 2000 

Used output format : Internal WAV Routines 
Sample format      : 44.100 Hz; 16 Bit; Stereo 

TOC of the extracted CD 

      Track |   Start  |  Length  | Start sector | End sector  
     --------------------------------------------------------- 
         1  |  0:00.00 |  4:22.60 |         0    |    19709    
         2  |  4:22.60 |  4:03.00 |     19710    |    37934    
         3  |  8:25.60 |  4:02.70 |     37935    |    56154    
         4  | 12:28.55 |  3:55.57 |     56155    |    73836    
         5  | 16:24.37 |  4:09.33 |     73837    |    92544    
         6  | 20:33.70 |  3:49.18 |     92545    |   109737    
         7  | 24:23.13 |  4:46.70 |    109738    |   131257    
         8  | 29:10.08 |  3:52.24 |    131258    |   148681    
         9  | 33:02.32 |  4:47.61 |    148682    |   170267    
        10  | 37:50.18 |  4:37.34 |    170268    |   191076    
        11  | 42:27.52 |  4:22.46 |    191077    |   210772    
        12  | 46:50.23 |  3:21.18 |    210773    |   225865    

Range status and errors 

Selected range 

      Filename C:\Users\tvno\Music\John Waite - Rough & Tumble.by.rat.eac.flac\John Waite - Rough & Tumble.by.rat.eac.flac.wav 

      Peak level 98.8 % 
      Extraction speed 0.2 X 
      Range quality 100.0 % 
      Copy CRC 82B6E3CD 
      Copy OK 

No errors occurred 

End of status report

download

Category: Classic rock | Views: 200 | Added by: Rat | Rating: 0.0/0
Total comments: 0
Only registered users can add comments.
[ Registration | Login ]

«  April 2011  »
SuMoTuWeThFrSa
     12
3456789
10111213141516
17181920212223
24252627282930


  • Israel-club.my1.ru


  • Copyright MyCorp © 2017