Thursday, 20.07.2017, 16:39
Welcome Guest | RSS
Main
Registration
Login




Vinyl [7]
Alternative [103]
Jazz [26]
Classic rock [179]
Classical [9]
Hard & Heavy [60]
Mainstream [53]
Hip-Hop [3]
Meditative [11]
New Beats [8]
Progressive [38]
Roots [25]
OST, Campilation [28]
DTS Releases [4]
Dvd Rip [7]
DVD [7]
Lossless HTTP [54]

Rate my site
Total of answers: 17


Total online: 1
Guests: 1
Users: 0

Login form

Main » 2012 » January » 29 » John Mellencamp - Dance Naked (1994)
18:03
John Mellencamp - Dance Naked (1994)
 

Artist: John Mellencamp 
Album: Dance Naked 
Released: 1994 
Source: Polygram # 314522428-2 
Genre: rock 
Format: eac/ape/covers
 

Quote
Dance Naked is a rock album by John Mellencamp released in 1994. The album was released in response to the record companies accusations that Mellencamp's previous album, Human Wheels, didn't "fit the format." Mellencamp was irritated with this remark, feeling that none of his albums ever fitted the format. As a result, he wrote several purposely radio-friendly songs and recorded them within the span of 14 days at the Belmont Mall Studio in Indiana, intending to show the lack of effort required to produce the type of album they were asking for. 

Although Mellencamp claims that Dance Naked was merely an easy output to give the company what it wanted, the album was still well received. The most notable accomplishment was the largely successful single "Wild Night", a cover of the 1971 song by Van Morrison. The song featured Me'shell Ndegeocello on a duet with Mellencamp as well as the prominent bass lead. The single reached #3 on the Billboard Top 100 and charted at #1 on the Adult Contemporary List for 8 weeks. The album itself reached #13 on the Billboard 200 and produced several music videos: two versions for "Wild Night", another for the title track "Dance Naked", and two un-released videos for "L.U.V." and "Another Sunny Day 12/25".


1. Dance Naked 
2. Brothers 
3. When Margeret Comes To Town 
4. Wild Night 
5. L.U.V. Liste 
6. Another Sunny Day 12/25 
7. Too Much To Think About 
8. The Big Jack Lis 
9. The Breakout 


Code
Exact Audio Copy V0.99 prebeta 3 from 28. July 2007 

EAC extraction logfile from 25. August 2007, 19:43 

John Cougar Melencamp / Dance Naked 

Used drive  : Optiarc DVD RW AD-7170A   Adapter: 1  ID: 0 

Read mode               : Secure 
Utilize accurate stream : Yes 
Defeat audio cache      : Yes 
Make use of C2 pointers : No 

Read offset correction                      : 0 
Overread into Lead-In and Lead-Out          : No 
Fill up missing offset samples with silence : Yes 
Delete leading and trailing silent blocks   : No 
Null samples used in CRC calculations       : No 
Used interface                    : Installed external ASPI interface 

Used output format : Internal WAV Routines 
Sample format      : 44.100 Hz; 16 Bit; Stereo 

TOC of the extracted CD 

      Track |   Start  |  Length  | Start sector | End sector  
     --------------------------------------------------------- 
         1  |  0:00.32 |  3:00.25 |        32    |    13556    
         2  |  3:00.57 |  3:14.30 |     13557    |    28136    
         3  |  6:15.12 |  3:20.30 |     28137    |    43166    
         4  |  9:35.42 |  3:27.55 |     43167    |    58746    
         5  | 13:03.22 |  3:01.30 |     58747    |    72351    
         6  | 16:04.52 |  3:02.48 |     72352    |    86049    
         7  | 19:07.25 |  3:02.22 |     86050    |    99721    
         8  | 22:09.47 |  3:23.23 |     99722    |   114969    
         9  | 25:32.70 |  3:37.60 |    114970    |   131304    

Range status and errors 

Selected range 

      Filename C:\Documents and Settings\Admin\Мои документы\John Cougar Melencamp - Dance Naked.wav 

      Peak level 99.0 % 
      Range quality 99.7 % 
      Copy CRC 0EF2C208 
      Copy OK 

No errors occurred 

End of status report


ed2k://|file|John Mellencamp
Category: Classic rock | Views: 312 | Added by: Rat | Rating: 0.0/0
Total comments: 0
Only registered users can add comments.
[ Registration | Login ]

«  January 2012  »
SuMoTuWeThFrSa
1234567
891011121314
15161718192021
22232425262728
293031


  • Israel-club.my1.ru


  • Copyright MyCorp © 2017