Monday, 26.06.2017, 22:48
Welcome Guest | RSS
Main
Registration
Login




Vinyl [7]
Alternative [103]
Jazz [26]
Classic rock [179]
Classical [9]
Hard & Heavy [60]
Mainstream [53]
Hip-Hop [3]
Meditative [11]
New Beats [8]
Progressive [38]
Roots [25]
OST, Campilation [28]
DTS Releases [4]
Dvd Rip [7]
DVD [7]
Lossless HTTP [54]

Rate my site
Total of answers: 17


Total online: 1
Guests: 1
Users: 0

Login form

Main » 2012 » February » 1 » John Cougar Mellencamp - The Lonesome Jubilee (1987)
23:44
John Cougar Mellencamp - The Lonesome Jubilee (1987)
 

Artist: John Cougar Mellencamp 
Album: The Lonesome Jubilee 
Released: 1987 
Source: Mercury 
Genre: Rock 
Format: eac/ape/covers
 

Quote
John Mellencamp's fascination with the American heartland came into full flower on Scarecrow, but with its follow-up, The Lonesome Jubilee, he began exploring American folk musics, adding fiddle, accordions, and acoustic guitars to his band, which allowed him to explore folk and country. The expansion of his band coincided with his continuing growth as a songwriter. Song for song, The Lonesome Jubilee is Mellencamp's strongest album, the record where he captured his romantic, if decidedly melancholy, vision of working-class America. He may recycle the same lyrical ideas as before, but he captures them better than ever, and his music is richer, which gives the album resonance. Again, there are a few moments where Mellencamp's reach exceeds his grasp, but "Paper in Fire," "Check It Out," "Cherry Bomb," "Empty Hands," and "Hard Times for an Honest Man" make the record his best.


1 Paper in Fire Mellencamp 3:53 
2 Down and Out in Paradise Mellencamp 3:39 
3 Check It Out Mellencamp 4:20 
4 The Real Life Mellencamp 3:56 
5 Cherry Bomb Mellencamp 4:49 
6 We Are the People Mellencamp 4:16 
7 Empty Hands Green, Mellencamp 3:44 
8 Hard Times for an Honest Man Mellencamp 3:28 
9 Hotdogs and Hamburgers Mellencamp 4:04 
10 Rooty Toot Toot Mellencamp 3:29
 
Code

Exact Audio Copy V0.99 prebeta 3 from 28. July 2007 

EAC extraction logfile from 9. September 2007, 21:29 

John Cougar Mellencamp / The Lonesome Jubilee 

Used drive  : Optiarc DVD RW AD-7170A   Adapter: 1  ID: 0 

Read mode               : Secure 
Utilize accurate stream : Yes 
Defeat audio cache      : Yes 
Make use of C2 pointers : No 

Read offset correction                      : 48 
Overread into Lead-In and Lead-Out          : No 
Fill up missing offset samples with silence : Yes 
Delete leading and trailing silent blocks   : No 
Null samples used in CRC calculations       : Yes 
Used interface                    : Installed external ASPI interface 

Used output format : Internal WAV Routines 
Sample format      : 44.100 Hz; 16 Bit; Stereo 

TOC of the extracted CD 

      Track |   Start  |  Length  | Start sector | End sector  
     --------------------------------------------------------- 
         1  |  0:00.32 |  3:51.60 |        32    |    17416    
         2  |  3:52.17 |  3:38.50 |     17417    |    33816    
         3  |  7:30.67 |  4:21.33 |     33817    |    53424    
         4  | 11:52.25 |  3:58.67 |     53425    |    71341    
         5  | 15:51.17 |  4:49.15 |     71342    |    93031    
         6  | 20:40.32 |  4:17.40 |     93032    |   112346    
         7  | 24:57.72 |  3:44.08 |    112347    |   129154    
         8  | 28:42.05 |  3:28.67 |    129155    |   144821    
         9  | 32:10.72 |  4:05.05 |    144822    |   163201    
        10  | 36:16.02 |  3:29.23 |    163202    |   178899    

Range status and errors 

Selected range 

      Filename C:\John Cougar Mellencamp - The Lonesome Jubilee.by.rat.eac.ape.covers\John Cougar Mellencamp - The Lonesome Jubilee.by.rat.eac.ape.covers.wav 

      Peak level 100.0 % 
      Range quality 100.0 % 
      Copy CRC 1952ABA0 
      Copy OK 

No errors occurred 

End of status report


John Cougar Mellencamp
Category: Classic rock | Views: 416 | Added by: Rat | Rating: 0.0/0
Total comments: 0
Only registered users can add comments.
[ Registration | Login ]

«  February 2012  »
SuMoTuWeThFrSa
   1234
567891011
12131415161718
19202122232425
26272829


  • Israel-club.my1.ru


  • Copyright MyCorp © 2017