Monday, 21.08.2017, 18:00
Welcome Guest | RSS
Main
Registration
Login




Vinyl [7]
Alternative [103]
Jazz [26]
Classic rock [179]
Classical [9]
Hard & Heavy [60]
Mainstream [53]
Hip-Hop [3]
Meditative [11]
New Beats [8]
Progressive [38]
Roots [25]
OST, Campilation [28]
DTS Releases [4]
Dvd Rip [7]
DVD [7]
Lossless HTTP [54]

Rate my site
Total of answers: 17


Total online: 1
Guests: 1
Users: 0

Login form

Main » 2010 » February » 20 » J.J. Cale - Special Edition (1984)
23:45
J.J. Cale - Special Edition (1984)

Label: Mercury
Catalog#: 818 633-2
Format: CD, Album,
Country: USA
Released: Audio CD October 25, 1990

Quote
There aren't too many CDs you can listen to all the way through without a bad patch. For me, this is one of those golden records. Cale is awesome, and I recommend it to anyone. From easy listeners to rock and rollers to country kickers, all will enjoy this one.

01. Cocaine [0:02:52.32]
02. Don't Wait [0:03:09.30]
03. Magniola [0:03:24.50]
04. Devil In Disguise [0:02:03.50]
05. Sensitive Kind [0:03:38.63]
06. Carry On [0:02:20.62]
07. After Midnight [0:02:24.13]
08. Money Talks [0:04:17.00]
09. Call Me The Breeze [0:02:36.62]
10. Lies [0:02:49.00]
11. City Girls [0:02:50.25]
12. Cajun Moon [0:02:15.50]
13. Don't Cry Sister [0:02:13.25]
14. Crazy Mama [0:02:23.63]

Code
Exact Audio Copy V0.99 prebeta 4 from 23. January 2008

EAC extraction logfile from 19. February 2009, 17:43

J.J. Cale / Special Edition

Used drive  : TSSTcorpCD/DVDW SH-W162L   Adapter: 3  ID: 1

Read mode               : Secure
Utilize accurate stream : Yes
Defeat audio cache      : Yes
Make use of C2 pointers : No

Read offset correction                      : 6
Overread into Lead-In and Lead-Out          : No
Fill up missing offset samples with silence : Yes
Delete leading and trailing silent blocks   : No
Null samples used in CRC calculations       : Yes
Used interface                    : Installed external ASPI interface

Used output format : Internal WAV Routines
Sample format      : 44.100 Hz; 16 Bit; Stereo

TOC of the extracted CD

       Track |   Start  |  Length  | Start sector | End sector   
      ---------------------------------------------------------
          1  |  0:00.33 |  2:52.32 |        33    |    12964     
          2  |  2:52.65 |  3:09.30 |     12965    |    27169     
          3  |  6:02.20 |  3:24.50 |     27170    |    42519     
          4  |  9:26.70 |  2:03.50 |     42520    |    51794     
          5  | 11:30.45 |  3:38.63 |     51795    |    68207     
          6  | 15:09.33 |  2:20.62 |     68208    |    78769     
          7  | 17:30.20 |  2:24.13 |     78770    |    89582     
          8  | 19:54.33 |  4:17.00 |     89583    |   108857     
          9  | 24:11.33 |  2:36.62 |    108858    |   120619     
         10  | 26:48.20 |  2:49.00 |    120620    |   133294     
         11  | 29:37.20 |  2:50.25 |    133295    |   146069     
         12  | 32:27.45 |  2:15.50 |    146070    |   156244     
         13  | 34:43.20 |  2:13.25 |    156245    |   166244     
         14  | 36:56.45 |  2:23.63 |    166245    |   177032     

Range status and errors

Selected range

       Filename C:\J.J. Cale - Special Edition..by.rat.eac.ape.covers.Israel-club.my1.ru\J.J. Cale - Special Edition..by.rat.eac.ape.covers.Israel-club.my1.ru.wav

       Peak level 99.4 %
       Range quality 99.9 %
       Copy CRC 7E23D12A
       Copy OK

No errors occurred

End of status report

My WebPage

Category: Classic rock | Views: 252 | Added by: Rat | Rating: 0.0/0
Total comments: 0
Only registered users can add comments.
[ Registration | Login ]

«  February 2010  »
SuMoTuWeThFrSa
 123456
78910111213
14151617181920
21222324252627
28


  • Israel-club.my1.ru


  • Copyright MyCorp © 2017