Monday, 25.09.2017, 20:52
Welcome Guest | RSS
Main
Registration
Login




Vinyl [7]
Alternative [103]
Jazz [26]
Classic rock [179]
Classical [9]
Hard & Heavy [60]
Mainstream [53]
Hip-Hop [3]
Meditative [11]
New Beats [8]
Progressive [38]
Roots [25]
OST, Campilation [28]
DTS Releases [4]
Dvd Rip [7]
DVD [7]
Lossless HTTP [54]

Rate my site
Total of answers: 17


Total online: 1
Guests: 1
Users: 0

Login form

Main » 2012 » January » 26 » Jimmy Page - Playin' Up A Storm (2011)
17:03
Jimmy Page - Playin' Up A Storm (2011)
 

Artist: Jimmy Page 
Album: Playin' Up A Storm 
Released: 2011 
Genre: rock
 

Quote
14 track collection of late 60's recordings (pre-Led Zeppelin) of Jimmy Page, Includes guest musicians Albert Lee, John Paul Jones and Nicky Hopkins. This CD will be of interest to more serious Led Zeppelin fans as it brings JPJ and Page together for the first time, and the team-up of blues legend Albert Lee with Jimmy is indicated for the faithful. More casual fans can give it a pass, there's very little on display here by Mr. Page that indicates the "Shapes Of Things" to come, but it gives props to Mr. Page's blues chops. Those looking to hear clearer precursors to Led Zeppelin are directed to the Yardbirds "Where The Action Is" and/or "Live Yardbirds! Featuring Jimmy Page" instead.


01. Lovin' Up A Storm [0:02:13.08] 
02. Everything I Do Is Wrong [0:02:54.47] 
03. Think It Over [0:02:33.63] 
04. Boll Weevil Song [0:02:08.47] 
05. Livin' Lovin' Wreck [0:02:13.25] 
06. One Long Kiss [0:09:48.00] 
07. Dixie Fried [0:02:25.18] 
08. Down The Line [0:02:21.10] 
09. Fabulous [0:02:25.05] 
10. Breathless [0:02:41.02] 
11. Rave On [0:02:08.50] 
12. Lonely Weekend [0:02:25.08] 
13. Burn Up [0:05:50.30] 
14. Everyday [0:02:30.10]
 

Code
Exact Audio Copy V1.0 beta 2 from 29. April 2011 

EAC extraction logfile from 25. January 2012, 14:53 

Jimmy Page / Playin' Up A Storm 

Used drive  : HL-DT-STDVD-RAM GH22NP20   Adapter: 0  ID: 0 

Read mode               : Secure 
Utilize accurate stream : Yes 
Defeat audio cache      : Yes 
Make use of C2 pointers : No 

Read offset correction                      : 102 
Overread into Lead-In and Lead-Out          : No 
Fill up missing offset samples with silence : Yes 
Delete leading and trailing silent blocks   : No 
Null samples used in CRC calculations       : Yes 
Used interface                    : Installed external ASPI interface 

Used output format : Internal WAV Routines 
Sample format      : 44.100 Hz; 16 Bit; Stereo 

TOC of the extracted CD 

      Track |   Start  |  Length  | Start sector | End sector  
     --------------------------------------------------------- 
         1  |  0:00.00 |  2:13.08 |         0    |     9982    
         2  |  2:13.08 |  2:54.47 |      9983    |    23079    
         3  |  5:07.55 |  2:33.63 |     23080    |    34617    
         4  |  7:41.43 |  2:08.47 |     34618    |    44264    
         5  |  9:50.15 |  2:13.25 |     44265    |    54264    
         6  | 12:03.40 |  9:48.00 |     54265    |    98364    
         7  | 21:51.40 |  2:25.18 |     98365    |   109257    
         8  | 24:16.58 |  2:21.10 |    109258    |   119842    
         9  | 26:37.68 |  2:25.05 |    119843    |   130722    
        10  | 29:02.73 |  2:41.02 |    130723    |   142799    
        11  | 31:44.00 |  2:08.50 |    142800    |   152449    
        12  | 33:52.50 |  2:25.08 |    152450    |   163332    
        13  | 36:17.58 |  5:50.30 |    163333    |   189612    
        14  | 42:08.13 |  2:30.10 |    189613    |   200872    

Range status and errors 

Selected range 

      Filename K:\Documents and Settings\Мои документы\Jimmy Page - Playin' Up A Storm.flac.covers.by.rat.lossless-muz.ucoz.com\Jimmy Page - Playin' Up A Storm.flac.covers.by.rat.lossless-muz.ucoz.wav 

      Peak level 100.0 % 
      Extraction speed 2.7 X 
      Range quality 100.0 % 
      Copy CRC BD298447 
      Copy OK 

No errors occurred 

   
AccurateRip summary 
   
Track  1  cannot be verified as accurate (confidence 3)  [CA38E5BB], AccurateRip returned [A9881A30]  (AR v2) 
Track  2  cannot be verified as accurate (confidence 3)  [F3B8E03F], AccurateRip returned [C67DE902]  (AR v2) 
Track  3  cannot be verified as accurate (confidence 3)  [C19F7A28], AccurateRip returned [D4C6535C]  (AR v2) 
Track  4  cannot be verified as accurate (confidence 3)  [5B326764], AccurateRip returned [ACFA4172]  (AR v2) 
Track  5  cannot be verified as accurate (confidence 3)  [2EE6CE08], AccurateRip returned [7DB02266]  (AR v2) 
Track  6  cannot be verified as accurate (confidence 3)  [89D1A923], AccurateRip returned [994D1775]  (AR v2) 
Track  7  cannot be verified as accurate (confidence 3)  [806C0279], AccurateRip returned [FEDA50B0]  (AR v2) 
Track  8  cannot be verified as accurate (confidence 3)  [FF5EB811], AccurateRip returned [FCD6AC3F]  (AR v2) 
Track  9  cannot be verified as accurate (confidence 3)  [73394088], AccurateRip returned [1938C732]  (AR v2) 
Track 10  cannot be verified as accurate (confidence 3)  [514C95F0], AccurateRip returned [816DC759]  (AR v2) 
Track 11  cannot be verified as accurate (confidence 3)  [073DE880], AccurateRip returned [60C2039A]  (AR v2) 
Track 12  cannot be verified as accurate (confidence 3)  [34BE7E99], AccurateRip returned [F46FB7EC]  (AR v2) 
Track 13  cannot be verified as accurate (confidence 3)  [D719B486], AccurateRip returned [69FF2FD5]  (AR v2) 
Track 14  cannot be verified as accurate (confidence 3)  [53BD9BF4], AccurateRip returned [FF5756B1]  (AR v2) 
   
No tracks could be verified as accurate 
You may have a different pressing from the one(s) in the database 

End of status report


Download
Category: Classic rock | Views: 393 | Added by: Rat | Rating: 0.0/0
Total comments: 0
Only registered users can add comments.
[ Registration | Login ]

«  January 2012  »
SuMoTuWeThFrSa
1234567
891011121314
15161718192021
22232425262728
293031


  • Israel-club.my1.ru


  • Copyright MyCorp © 2017