Saturday, 19.08.2017, 13:08
Welcome Guest | RSS
Main
Registration
Login




Vinyl [7]
Alternative [103]
Jazz [26]
Classic rock [179]
Classical [9]
Hard & Heavy [60]
Mainstream [53]
Hip-Hop [3]
Meditative [11]
New Beats [8]
Progressive [38]
Roots [25]
OST, Campilation [28]
DTS Releases [4]
Dvd Rip [7]
DVD [7]
Lossless HTTP [54]

Rate my site
Total of answers: 17


Total online: 1
Guests: 1
Users: 0

Login form

Main » 2010 » July » 3 » JESUS ON EXTASY - HOLY BEAUTY (2007)
08:33
JESUS ON EXTASY - HOLY BEAUTY (2007)

Artist: JESUS ON EXTASY
Album: HOLY BEAUTY
Year: 2007
Label: Amiga
Style: Industrial/synthpop
Format: Eac-ape-covers

Quote

Jesus on Extasy is a band that will quickly gain success. Musicwise comparable to Dope Stars Inc. and Deathstars and strongly influenced by their great role model Marilyn Manson. Industrial rock with a little glam. On the single ‘Assassinate Me’ it surely delivers. This is a nice song as well. For a full length album it however seems harder to keep it up in musical respect and it quickly becomes boring. Yet the album Holy Beauty has some nice songs that are interesting for whoever likes this kind of crossover electro-industrial rock. ‘Nuclear Bitch’ is one of the nice songs and it has as much hit potential as ‘Assassinate Me’. Also the merciless pounding ‘Neochrome’ is quite allright but that is all there is. The sampling on this recording is very good though. After some tracks i started to get irritated by the horrible German accent of the English languaged vocalist. And a cover of a song such as ‘2nd Skin’ just is something you don’t do. Jesus on Exstasy has been succesfully launched as new act, but it isn’t original nor good, that’s for sure.

1. Assassinate Me
2. Nuclear Bitch
3. Drowning
4. Neochrome
5. Second Skin
6. Alone
7. Puppet
8. Holy Beauty
9. Nowhere Girl
10. Reach out
11. Assassinate Me (KMFDM Remix)

Code
Exact Audio Copy V0.99 prebeta 3 from 28. July 2007

EAC extraction logfile from 7. April 2008, 21:14

Jesus On Extasy / Holy Beauty

Used drive  : TSSTcorpCD/DVDW SH-W162L   Adapter: 1  ID: 1

Read mode               : Secure
Utilize accurate stream : Yes
Defeat audio cache      : Yes
Make use of C2 pointers : No

Read offset correction                      : 6
Overread into Lead-In and Lead-Out          : No
Fill up missing offset samples with silence : Yes
Delete leading and trailing silent blocks   : No
Null samples used in CRC calculations       : Yes
Used interface                    : Installed external ASPI interface

Used output format : Internal WAV Routines
Sample format      : 44.100 Hz; 16 Bit; Stereo

TOC of the extracted CD

       Track |   Start  |  Length  | Start sector | End sector   
      ---------------------------------------------------------
          1  |  0:00.00 |  3:48.73 |         0    |    17172     
          2  |  3:48.73 |  3:44.56 |     17173    |    34028     
          3  |  7:33.54 |  4:54.69 |     34029    |    56147     
          4  | 12:28.48 |  3:42.31 |     56148    |    72828     
          5  | 16:11.04 |  6:48.19 |     72829    |   103447     
          6  | 22:59.23 |  5:15.28 |    103448    |   127100     
          7  | 28:14.51 |  4:00.56 |    127101    |   145156     
          8  | 32:15.32 |  4:20.25 |    145157    |   164681     
          9  | 36:35.57 |  4:29.10 |    164682    |   184866     
         10  | 41:04.67 |  4:28.64 |    184867    |   205030     
         11  | 45:33.56 |  3:55.65 |    205031    |   222720     

Range status and errors

Selected range

       Filename C:\Jesus On Extasy - Holy Beauty.by.rat.eac.ape.covers.Israel-club.my1.ru\Jesus On Extasy - Holy Beauty.by.rat.eac.ape.covers.Israel-club.my1.ru.wav

       Peak level 98.8 %
       Range quality 100.0 %
       Copy CRC 8DEBA3E4
       Copy OK

No errors occurred

End of status report

My WebPage

Category: Alternative | Views: 241 | Added by: Rat | Rating: 0.0/0
Total comments: 0
Only registered users can add comments.
[ Registration | Login ]

«  July 2010  »
SuMoTuWeThFrSa
    123
45678910
11121314151617
18192021222324
25262728293031


  • Israel-club.my1.ru


  • Copyright MyCorp © 2017