Thursday, 20.07.2017, 16:42
Welcome Guest | RSS
Main
Registration
Login




Vinyl [7]
Alternative [103]
Jazz [26]
Classic rock [179]
Classical [9]
Hard & Heavy [60]
Mainstream [53]
Hip-Hop [3]
Meditative [11]
New Beats [8]
Progressive [38]
Roots [25]
OST, Campilation [28]
DTS Releases [4]
Dvd Rip [7]
DVD [7]
Lossless HTTP [54]

Rate my site
Total of answers: 17


Total online: 1
Guests: 1
Users: 0

Login form

Main » 2010 » February » 5 » Jeffrey Osborne - That's for Sure (2000)
08:31
Jeffrey Osborne - That's for Sure (2000)

Artist: Jeffrey Osborne
Album: That's for Sure
Released: 2000
Source: BMG records
Genre: R&B/Urban
Format: Eac/ape/covers

Quote
The great thing about adult contemporary music is that it provides a format for artists whose place on the pop charts in the '50s, '60s, '70s, and '80s was supplanted by the hip-hop and teenyboppers of the '90s and early '00s. Jeffrey Osborne is one such classic soul voice way past his prime but still cranking out appealing music that can't help but reach emotional depths because his voice is so rich, deep, and powerful. The tunes here are all slickly produced, from the cool and funky ode to love's second chance "2nd Time Around" to the dreamy ballad "That's for Sure." He's never been Barry White, but sexy funk ballads like "Come With Me" make perfect soundtracks to bedroom activities. Yet you can't get around the fact that, as strong as some of these tunes are, they pale next to the closing number, a live rendition of Osborne's first LTD hit "Love Ballad" -- which was also made famous by George Benson. The inclusion of this classic serves to remind new listeners that Osborne had a past; but longtime fans may feel a bit sad that none of his work on That's for Sure can approach his glories of the past.


01. 2nd Time Around [0:04:43.35]
02. Kreepin' [0:05:06.50]
03. That's For Sure [0:06:22.22]
04. I'll Do It All For Love [0:05:30.45]
05. Can't Find An Easy Way [0:04:51.15]
06. Soft And Slow [0:05:42.35]
07. Work That Body [0:03:51.50]
08. Call My Name [0:05:24.28]
09. Come With Me [0:05:37.40]
10. All My Money [0:05:19.22]
11. Was It Something I Said [0:05:36.60]
12. Love Ballad [0:07:29.43]

Code
Exact Audio Copy V0.99 prebeta 3 from 28. July 2007

EAC extraction logfile from 7. January 2008, 19:57

Jeffrey Osborne / That's for Sure

Used drive  : Optiarc DVD RW AD-7170A   Adapter: 1  ID: 0

Read mode               : Secure
Utilize accurate stream : Yes
Defeat audio cache      : Yes
Make use of C2 pointers : No

Read offset correction                      : 48
Overread into Lead-In and Lead-Out          : No
Fill up missing offset samples with silence : Yes
Delete leading and trailing silent blocks   : No
Null samples used in CRC calculations       : Yes
Used interface                    : Installed external ASPI interface

Used output format : Internal WAV Routines
Sample format      : 44.100 Hz; 16 Bit; Stereo

TOC of the extracted CD

       Track |   Start  |  Length  | Start sector | End sector   
      ---------------------------------------------------------
          1  |  0:00.00 |  4:43.35 |         0    |    21259     
          2  |  4:43.35 |  5:06.50 |     21260    |    44259     
          3  |  9:50.10 |  6:22.22 |     44260    |    72931     
          4  | 16:12.32 |  5:30.45 |     72932    |    97726     
          5  | 21:43.02 |  4:51.15 |     97727    |   119566     
          6  | 26:34.17 |  5:42.35 |    119567    |   145251     
          7  | 32:16.52 |  3:51.50 |    145252    |   162626     
          8  | 36:08.27 |  5:24.28 |    162627    |   186954     
          9  | 41:32.55 |  5:37.40 |    186955    |   212269     
         10  | 47:10.20 |  5:19.22 |    212270    |   236216     
         11  | 52:29.42 |  5:36.60 |    236217    |   261476     
         12  | 58:06.27 |  7:29.43 |    261477    |   295194     

Range status and errors

Selected range

       Filename C:\Jeffrey Osborne - That's for Sure.by.rat.eac-ape.covers.israel-club.my1.ru\Jeffrey Osborne - That's for Sure.by.rat.eac-ape.covers.israel-club.my1.ru.wav

       Peak level 100.0 %
       Range quality 99.9 %
       Copy CRC D84A62A6
       Copy OK

No errors occurred

End of status report

LINK

Category: New Beats | Views: 422 | Added by: Rat | Rating: 0.0/0
Total comments: 0
Only registered users can add comments.
[ Registration | Login ]

«  February 2010  »
SuMoTuWeThFrSa
 123456
78910111213
14151617181920
21222324252627
28


  • Israel-club.my1.ru


  • Copyright MyCorp © 2017