Friday, 23.06.2017, 22:41
Welcome Guest | RSS
Main
Registration
Login




Vinyl [7]
Alternative [103]
Jazz [26]
Classic rock [179]
Classical [9]
Hard & Heavy [60]
Mainstream [53]
Hip-Hop [3]
Meditative [11]
New Beats [8]
Progressive [38]
Roots [25]
OST, Campilation [28]
DTS Releases [4]
Dvd Rip [7]
DVD [7]
Lossless HTTP [54]

Rate my site
Total of answers: 17


Total online: 1
Guests: 1
Users: 0

Login form

Main » 2010 » February » 20 » Jeff Healey Band - Get Me Some (2000)
13:17
Jeff Healey Band - Get Me Some (2000)

Artist: Jeff Healey Band
Album: Get Me Some
Released: 2000
Source: Eagle Rock/Eagle
Genre: Blues
Format: eac-ape.covers

Quote
In case you didn't know, Jeff Healey's fame came with his 1988 hit single 'Angel Eyes', and you might have seen him performing AND acting one of Patrick Swayze's forgettable movies, Road House. While "Angel Eyes" was a terrific song, it only scratches the surface of Healey's extortionary talents.

Get Me Some came after a 5-year hiatus in which the band lost it's contract with it's record company, so this album was released under his own Canadian label, Forte Records. It received little promotion and sold very poorly, which is a shame because it is one remarkable record. There a several fantastic tracks, and Mr. Healey plays with emotion and skill rarely seen from today's mainstream musicians. Most tracks stand out, with only one or two not withstanding the test of time. The opener, Which One, is the heaviest, and there are several mid-rockers and ballads. When you hear Macon Georgia Blue, you'll never be the same.

If you like ANY kind of music, do yourself a favor and buy this album. You won't regret it.



1. Which One
2. Hey Hey
3. My Life Story
4. I Tried
5. I Should Have Told You
6. Love Is the Answer
7. Damage Is Done
8. Feel Better
9. Holding On
10. Macon Georgia Blue
11. House Is Burning Down
12. Runaway Heart
13. Rachel's Song

Code
Exact Audio Copy V0.99 prebeta 3 from 28. July 2007

EAC extraction logfile from 17. February 2008, 20:40

Jeff Healey Band / Get Me Some

Used drive  : TSSTcorpCD/DVDW SH-W162L   Adapter: 1  ID: 1

Read mode               : Secure
Utilize accurate stream : Yes
Defeat audio cache      : Yes
Make use of C2 pointers : No

Read offset correction                      : 6
Overread into Lead-In and Lead-Out          : No
Fill up missing offset samples with silence : Yes
Delete leading and trailing silent blocks   : No
Null samples used in CRC calculations       : Yes
Used interface                    : Installed external ASPI interface

Used output format : Internal WAV Routines
Sample format      : 44.100 Hz; 16 Bit; Stereo

TOC of the extracted CD

       Track |   Start  |  Length  | Start sector | End sector   
      ---------------------------------------------------------
          1  |  0:00.00 |  3:56.22 |         0    |    17721     
          2  |  3:56.22 |  4:35.10 |     17722    |    38356     
          3  |  8:31.32 |  4:24.50 |     38357    |    58206     
          4  | 12:56.07 |  3:25.25 |     58207    |    73606     
          5  | 16:21.32 |  4:06.35 |     73607    |    92091     
          6  | 20:27.67 |  3:50.70 |     92092    |   109411     
          7  | 24:18.62 |  5:26.28 |    109412    |   133889     
          8  | 29:45.15 |  4:24.20 |    133890    |   153709     
          9  | 34:09.35 |  3:40.27 |    153710    |   170236     
         10  | 37:49.62 |  4:24.03 |    170237    |   190039     
         11  | 42:13.65 |  4:22.35 |    190040    |   209724     
         12  | 46:36.25 |  4:17.65 |    209725    |   229064     
         13  | 50:54.15 |  3:26.07 |    229065    |   244521     

Range status and errors

Selected range

       Filename C:\Jeff Healey Band - Get Me Some.by.rat.eac.ape.covers.Israel-club.my1.ru\Jeff Healey Band - Get Me Some.by.rat.eac.ape.covers.Israel-club.my1.ru.wav

       Peak level 99.8 %
       Range quality 100.0 %
       Copy CRC A1884DEF
       Copy OK

No errors occurred

End of status report

link

Category: Classic rock | Views: 296 | Added by: Rat | Rating: 0.0/0
Total comments: 0
Only registered users can add comments.
[ Registration | Login ]

«  February 2010  »
SuMoTuWeThFrSa
 123456
78910111213
14151617181920
21222324252627
28


  • Israel-club.my1.ru


  • Copyright MyCorp © 2017