Tuesday, 27.06.2017, 16:06
Welcome Guest | RSS
Main
Registration
Login




Vinyl [7]
Alternative [103]
Jazz [26]
Classic rock [179]
Classical [9]
Hard & Heavy [60]
Mainstream [53]
Hip-Hop [3]
Meditative [11]
New Beats [8]
Progressive [38]
Roots [25]
OST, Campilation [28]
DTS Releases [4]
Dvd Rip [7]
DVD [7]
Lossless HTTP [54]

Rate my site
Total of answers: 17


Total online: 1
Guests: 1
Users: 0

Login form

Main » 2010 » February » 12 » Jean-Paul Bourelly - Boom Bop (2000)
22:45
Jean-Paul Bourelly - Boom Bop (2000)

Artist: Jean-Paul Bourelly
Album: Boom Bop
Released: 2000
Source: Jazz Magnet
Genre: Fusion/jazz
Format: eac.ape.covers

Quote
Guitarist Jean-Paul Bourelly's ensemble combines his own heavy guitar sound and R&B-tinged vocals, the passionate African chants of Abdourahmane Diop, and the percussive drive of Samba Sock on boograboo (four large African congas with bells) and Slaka on djembe. Reggie Washington (of Steve Coleman renown) plays bass on four tracks, doubling the low end with Big Royal Talamacus on "filtered boom bass," which sounds like bass through a fuzz box. Two high-profile guest saxophonists, Archie Shepp and Henry Threadgill, appear on several tracks, enlivening the session with their free jazz sensibilities. Bourelly's work could be called freeform funk-rock, with strong hints of Hendrix and Vernon Reid, as well as the kind of focused-yet-free rhythmic attack associated with Steve Coleman and the M-Base movement. The term "boom bop" in fact captures it quite well. There's also a strong political undercurrent in Bourelly's music, which becomes overt with the rap lyrics to "Invisible Indivisible." On electric guitar, Bourelly is at his best on "Three Chambers of Diop," where his wah-wah creates a wall of sound with a unique kind of beauty. In a very different vein, his solo acoustic guitar piece "Root One" would make any Jimmy Page fan happy.

01. Gunble [0:07:28.64]
02. New Afro Blu [0:09:52.31]
03. Three Chambers Of Diop [0:10:53.60]
04. Silent Rain [0:07:37.50]
05. Root One [0:03:09.03]
06. Invisible Indivisible [0:07:34.51]
07. Kinetic Threadness [0:07:03.23]
08. Brother Boom Bap [0:01:55.67]
09. tara [0:06:38.67]
10. Griot Sunset [0:01:16.62]

Code
Exact Audio Copy V0.99 prebeta 3 from 28. July 2007

EAC extraction logfile from 5. February 2008, 22:38

Jean-Paul Bourelly / Boom Bop

Used drive  : TSSTcorpCD/DVDW SH-W162L   Adapter: 1  ID: 1

Read mode               : Secure
Utilize accurate stream : Yes
Defeat audio cache      : Yes
Make use of C2 pointers : No

Read offset correction                      : 6
Overread into Lead-In and Lead-Out          : No
Fill up missing offset samples with silence : Yes
Delete leading and trailing silent blocks   : No
Null samples used in CRC calculations       : Yes
Used interface                    : Installed external ASPI interface

Used output format : Internal WAV Routines
Sample format      : 44.100 Hz; 16 Bit; Stereo

TOC of the extracted CD

       Track |   Start  |  Length  | Start sector | End sector   
      ---------------------------------------------------------
          1  |  0:00.00 |  7:28.64 |         0    |    33663     
          2  |  7:28.64 |  9:52.31 |     33664    |    78094     
          3  | 17:21.20 | 10:53.60 |     78095    |   127129     
          4  | 28:15.05 |  7:37.50 |    127130    |   161454     
          5  | 35:52.55 |  3:09.03 |    161455    |   175632     
          6  | 39:01.58 |  7:34.51 |    175633    |   209733     
          7  | 46:36.34 |  7:03.23 |    209734    |   241481     
          8  | 53:39.57 |  1:55.67 |    241482    |   250173     
          9  | 55:35.49 |  6:38.67 |    250174    |   280090     
         10  | 62:14.41 |  1:16.62 |    280091    |   285852     

Range status and errors

Selected range

       Filename C:\Jean.-.Paul.Bourelly - Boom.Bop.by.rat.dgpack.eac.ape.Hqcovers.Israel-club.my1.ru\Jean-Paul Bourelly - Boom Bop.by.wav

       Peak level 97.7 %
       Range quality 100.0 %
       Copy CRC EF3ECEE8
       Copy OK

No errors occurred

End of status report

LINK

Category: Jazz | Views: 315 | Added by: Rat | Rating: 0.0/0
Total comments: 0
Only registered users can add comments.
[ Registration | Login ]

«  February 2010  »
SuMoTuWeThFrSa
 123456
78910111213
14151617181920
21222324252627
28


  • Israel-club.my1.ru


  • Copyright MyCorp © 2017