Friday, 18.08.2017, 03:21
Welcome Guest | RSS
Main
Registration
Login




Vinyl [7]
Alternative [103]
Jazz [26]
Classic rock [179]
Classical [9]
Hard & Heavy [60]
Mainstream [53]
Hip-Hop [3]
Meditative [11]
New Beats [8]
Progressive [38]
Roots [25]
OST, Campilation [28]
DTS Releases [4]
Dvd Rip [7]
DVD [7]
Lossless HTTP [54]

Rate my site
Total of answers: 17


Total online: 1
Guests: 1
Users: 0

Login form

Main » 2012 » January » 29 » Jack Johnson - On And On (2003)
19:10
Jack Johnson - On And On (2003)
 

Artist:Jack Johnson 
Album:On And On 
Released: 2003 
Source: Universal 
Genre: Alternative Rock 
Format: eac/ape
 

Quote
It took Jack Johnson two years to break mainstream with his debut album, Brushfire Fairytales, and by the time it went platinum in early 2003, his star power was unstoppable. Twentysomethings and college kids across the globe often compared Johnson's comfortable approach to the fiery Ben Harper, so when it came time to make a second album, Johnson basically picked up where the first album left off. On and On is a sparkling sophomore effort, carefully designed to avoid any kind of critical slump. Fans will enjoy Johnson's soothing ballads and boy-next-door charms, never looking beyond the surface of the songs themselves. Producer Mario Caldato, Jr. (Beastie Boys, Jon Spencer Blues Explosion) hones Johnson's feel-good vibe, polishing his signature acoustic guitars to wave along to On and On's genre-blending sound. Johnson gets serious this time, too. He playfully expounds on America's sickening dependence on material things ("Gone") and its subconscious ill will with today's youth ("Cookie Jar"). Other views on world war ("Traffic in the Sky") and a capitalistic, business-obsessed way of life ("The Horizon Has Been Defeated") are gently reflected upon without reproach. Johnson doesn't need to be an aggressive messenger to get his point across; the monumental sales of Brushfire Fairytales make that quite clear. People are listening to Johnson's musical commentary because he's on their level. He's not a philosophical preacher like his counterpart, Harper. On and On keeps things simple in sound and time. The only noticeable change is that Johnson didn't lyrically restrain himself. There are 17 solid tracks featured on On and On, each one is a spiritual groove rooted in funk and blues. In dire times, Johnson is sunny and sunny always feels good.


1 Times Like These Johnson 2:22 
2 LThe Horizon Has Been Defeated Johnson 2:33 
3 Traffic in the Sky Johnson 2:50 
4 Taylor Johnson 3:59 
5 Gone Johnson 2:10 
6 Cupid Johnson 1:05 
7 Wasting Time Johnson, Podlewski, Topol 3:50 
8 Holes to Heaven Johnson 2:54 
9 Dreams Be Dreams Johnson 2:12 
10 Tomorrow Morning Johnson 2:50 
11 Fall Line Johnson 1:35 
12 Cookie Jar Johnson 2:57 
13 Rodeo Clowns Johnson 2:38 
14 Cocoon Johnson 4:10 
15 Mediocre Bad Guys Johnson 3:00 
16 Symbol in My Driveway Johnson 2:50
 

Code
Exact Audio Copy V0.99 prebeta 3 from 28. July 2007 

EAC extraction logfile from 5. September 2007, 23:06 

Jack Johnson / On And On 

Used drive  : TSSTcorpCD/DVDW SH-W162L   Adapter: 1  ID: 1 

Read mode               : Secure 
Utilize accurate stream : Yes 
Defeat audio cache      : Yes 
Make use of C2 pointers : No 

Read offset correction                      : 6 
Overread into Lead-In and Lead-Out          : No 
Fill up missing offset samples with silence : Yes 
Delete leading and trailing silent blocks   : No 
Null samples used in CRC calculations       : No 
Used interface                    : Installed external ASPI interface 

Used output format : Internal WAV Routines 
Sample format      : 44.100 Hz; 16 Bit; Stereo 

TOC of the extracted CD 

      Track |   Start  |  Length  | Start sector | End sector  
     --------------------------------------------------------- 
         1  |  0:00.00 |  2:21.70 |         0    |    10644    
         2  |  2:21.70 |  2:33.47 |     10645    |    22166    
         3  |  4:55.42 |  2:50.71 |     22167    |    34987    
         4  |  7:46.38 |  3:59.21 |     34988    |    52933    
         5  | 11:45.59 |  2:10.01 |     52934    |    62684    
         6  | 13:55.60 |  1:05.56 |     62685    |    67615    
         7  | 15:01.41 |  3:50.35 |     67616    |    84900    
         8  | 18:52.01 |  2:54.63 |     84901    |    98013    
         9  | 21:46.64 |  2:12.71 |     98014    |   107984    
        10  | 23:59.60 |  2:50.55 |    107985    |   120789    
        11  | 26:50.40 |  1:35.66 |    120790    |   127980    
        12  | 28:26.31 |  2:56.58 |    127981    |   141238    
        13  | 31:23.14 |  2:38.31 |    141239    |   153119    
        14  | 34:01.45 |  4:10.66 |    153120    |   171935    
        15  | 38:12.36 |  2:59.69 |    171936    |   185429    
        16  | 41:12.30 |  2:50.22 |    185430    |   198201    

Range status and errors 

Selected range 

      Filename C:\Jack Johnson - On And On.by.rat.eac-ape\Jack Johnson - On And On.wav 

      Peak level 98.8 % 
      Range quality 100.0 % 
      Copy CRC 862577C4 
      Copy OK 

No errors occurred 

   
AccurateRip summary 
   
Track  1  accurately ripped (confidence 20)  [EF7E1A56] 
Track  2  accurately ripped (confidence 20)  [377D2C23] 
Track  3  accurately ripped (confidence 20)  [7BBAAB73] 
Track  4  accurately ripped (confidence 20)  [C76CC2E8] 
Track  5  accurately ripped (confidence 20)  [8990D502] 
Track  6  accurately ripped (confidence 20)  [7B6F4B24] 
Track  7  accurately ripped (confidence 20)  [E6CF87C9] 
Track  8  accurately ripped (confidence 20)  [E8EEE71D] 
Track  9  accurately ripped (confidence 20)  [70482CDB] 
Track 10  accurately ripped (confidence 20)  [92C481BF] 
Track 11  accurately ripped (confidence 20)  [DED622F5] 
Track 12  accurately ripped (confidence 20)  [2099B082] 
Track 13  accurately ripped (confidence 20)  [DFE5D9C9] 
Track 14  accurately ripped (confidence 20)  [FCDEBE5A] 
Track 15  accurately ripped (confidence 20)  [D082EDEB] 
Track 16  accurately ripped (confidence 20)  [FDA0CACF] 
   
All tracks accurately ripped 

End of status report 


download
Category: Alternative | Views: 329 | Added by: Rat | Rating: 0.0/0
Total comments: 0
Only registered users can add comments.
[ Registration | Login ]

«  January 2012  »
SuMoTuWeThFrSa
1234567
891011121314
15161718192021
22232425262728
293031


  • Israel-club.my1.ru


  • Copyright MyCorp © 2017