Monday, 26.06.2017, 21:02
Welcome Guest | RSS
Main
Registration
Login




Vinyl [7]
Alternative [103]
Jazz [26]
Classic rock [179]
Classical [9]
Hard & Heavy [60]
Mainstream [53]
Hip-Hop [3]
Meditative [11]
New Beats [8]
Progressive [38]
Roots [25]
OST, Campilation [28]
DTS Releases [4]
Dvd Rip [7]
DVD [7]
Lossless HTTP [54]

Rate my site
Total of answers: 17


Total online: 1
Guests: 1
Users: 0

Login form

Main » 2012 » January » 27 » ICEHOUSE - WHITE HEAT (2011)
17:30
ICEHOUSE - WHITE HEAT (2011)
 

Artist: ICEHOUSE 
Album: WHITE HEAT 
Released: 2011 
Genre: Pop rock, Indie,new wave
 

Quote
Following the unexpected and overwhelming response to the Flowers ICEHOUSE 30 
th 
Anniversary Edition released in 
May this year, Universal Music and Iva Davies are excited to announce the second release of their partnership. 
For the first time, ICEHOUSE White Heat: 30 Hits brings together every single from the ICEHOUSE pantheon ever 
released worldwide. 
Available August 26 
th 
2011, White Heat: 30 Hits, will reunite and excite fans from all over the world with a 3 disc set 
containing two audio CDs, each with 15 songs in chronological order of their release, and a DVD with 32 film clips from 
over the years. The album will take you on a journey through the band’s amazing music career, combining decades of 
history in one album with hit songs, such as Great Southern Land, Hey, Little Girl, Crazy and Electric Blue that have won 
fans all over the world. 
Connecting with the history of the music, the packaging of the album will also include a 12 page booklet with images of 
the band from each album era and single cover artwork. Included among the musicians who have been a part of the 
ICEHOUSE line-up live or on record are the acclaimed bass player, Guy Pratt, who toured with the band for the Primitive 
Man and Sidewalk albums, soundscape artist and production genius Brian Eno who featured on their 1986 release 
Measure for Measure and beloved Australian sax-and-song man, Joe Camilleri.


Tracklist: 

CD1 

01: Can't Help Myself (03:11) 
02: We Can Get Together (03:46) 
03: Walls (04:22) 
04: Icehouse (04:25) 
05: Love In Motion (Original Single Mix) (03:40) 
06: Great Southern Land (05:17) 
07: Hey, Little Girl (04:25) 
08: Street Cafe (04:12) 
09: Glam (03:22) 
10: Taking The Town (03:34) 
11: Don't Believe Anymore (05:18) 
12: Dusty Pages (04:03) 
13: No Promises (04:41) 
14: Baby, You're So Strange (03:59) 
15: Mr Big (03:32) 

CD2 

01: Cross The Border (04:23) 
02: Crazy (03:24) 
03: Electric Blue (04:25) 
04: My Obsession (04:10) 
05: Man Of Colours (05:13) 
06: Nothing Too Serious (03:27) 
07: Touch The Fire (03:48) 
08: Jimmy Dean (04:03) 
09: Big Fun (04:00) 
10: Miss Divine (04:20) 
11: Anything Is Possible (04:21) 
12: Satellite (04:19) 
13: Big Wheel (04:28) 
14: Invisible People (06:12) 
15: Love In Motion (with Christina Amphlett) (04:42)
 

SPOILER! 
Code
Exact Audio Copy V1.0 beta 2 from 29. April 2011 

EAC extraction logfile from 26. January 2012, 13:09 

Icehouse / White heat cd2 

Used drive : HL-DT-STDVD-RAM GH22NP20 Adapter: 0 ID: 0 

Read mode : Secure 
Utilize accurate stream : Yes 
Defeat audio cache : Yes 
Make use of C2 pointers : No 

Read offset correction : 102 
Overread into Lead-In and Lead-Out : No 
Fill up missing offset samples with silence : Yes 
Delete leading and trailing silent blocks : No 
Null samples used in CRC calculations : Yes 
Used interface : Installed external ASPI interface 

Used output format : Internal WAV Routines 
Sample format : 44.100 Hz; 16 Bit; Stereo 

TOC of the extracted CD 

Track | Start | Length | Start sector | End sector  
--------------------------------------------------------- 
1 | 0:00.00 | 4:23.66 | 0 | 19790  
2 | 4:23.66 | 3:24.12 | 19791 | 35102  
3 | 7:48.03 | 4:25.19 | 35103 | 54996  
4 | 12:13.22 | 4:10.06 | 54997 | 73752  
5 | 16:23.28 | 5:13.01 | 73753 | 97228  
6 | 21:36.29 | 3:27.72 | 97229 | 112825  
7 | 25:04.26 | 3:48.49 | 112826 | 129974  
8 | 28:53.00 | 4:03.27 | 129975 | 148226  
9 | 32:56.27 | 4:00.45 | 148227 | 166271  
10 | 36:56.72 | 4:20.37 | 166272 | 185808  
11 | 41:17.34 | 4:21.10 | 185809 | 205393  
12 | 45:38.44 | 4:19.51 | 205394 | 224869  
13 | 49:58.20 | 4:28.18 | 224870 | 244987  
14 | 54:26.38 | 6:11.73 | 244988 | 272885  
15 | 60:38.36 | 4:42.29 | 272886 | 294064  

Range status and errors 

Selected range 

Filename K:\Documents and Settings\Мои документы\Icehouse - White Heat.flac.covers.by.rat.lossless-muz.ucoz.com\cd2\Icehouse - White Heat.cd2.flac.covers.by.rat.lossless-muz.ucoz.wav 

Peak level 82.8 % 
Extraction speed 3.0 X 
Range quality 100.0 % 
Copy CRC A4EB85DE 
Copy OK 

No errors occurred 

AccurateRip summary 

Track 1 not present in database 
Track 2 not present in database 
Track 3 not present in database 
Track 4 not present in database 
Track 5 not present in database 
Track 6 not present in database 
Track 7 not present in database 
Track 8 not present in database 
Track 9 not present in database 
Track 10 not present in database 
Track 11 not present in database 
Track 12 not present in database 
Track 13 not present in database 
Track 14 not present in database 
Track 15 not present in database 

None of the tracks are present in the AccurateRip database 

End of status report 

Exact Audio Copy V1.0 beta 2 from 29. April 2011 

EAC extraction logfile from 26. January 2012, 12:15 

Icehouse / White Heat cd1 

Used drive : HL-DT-STDVD-RAM GH22NP20 Adapter: 0 ID: 0 

Read mode : Secure 
Utilize accurate stream : Yes 
Defeat audio cache : Yes 
Make use of C2 pointers : No 

Read offset correction : 102 
Overread into Lead-In and Lead-Out : No 
Fill up missing offset samples with silence : Yes 
Delete leading and trailing silent blocks : No 
Null samples used in CRC calculations : Yes 
Used interface : Installed external ASPI interface 

Used output format : Internal WAV Routines 
Sample format : 44.100 Hz; 16 Bit; Stereo 

TOC of the extracted CD 

Track | Start | Length | Start sector | End sector  
--------------------------------------------------------- 
1 | 0:00.00 | 3:13.13 | 0 | 14487  
2 | 3:13.13 | 3:48.66 | 14488 | 31653  
3 | 7:02.04 | 4:24.36 | 31654 | 51489  
4 | 11:26.40 | 4:27.01 | 51490 | 71515  
5 | 15:53.41 | 3:42.66 | 71516 | 88231  
6 | 19:36.32 | 5:19.15 | 88232 | 112171  
7 | 24:55.47 | 4:27.46 | 112172 | 132242  
8 | 29:23.18 | 4:14.49 | 132243 | 151341  
9 | 33:37.67 | 3:24.54 | 151342 | 166695  
10 | 37:02.46 | 3:36.48 | 166696 | 182943  
11 | 40:39.19 | 5:20.18 | 182944 | 206961  
12 | 45:59.37 | 4:05.64 | 206962 | 225400  
13 | 50:05.26 | 4:43.15 | 225401 | 246640  
14 | 54:48.41 | 4:01.16 | 246641 | 264731  
15 | 58:49.57 | 3:32.07 | 264732 | 280638  

Range status and errors 

Selected range 

Filename K:\Documents and Settings\Мои документы\Icehouse - White Heat.flac.covers.by.rat.lossless-muz.ucoz.com\cd1\Icehouse - White Heat.flac.covers.by.rat.lossless-muz.ucoz.wav 

Peak level 98.8 % 
Extraction speed 3.0 X 
Range quality 100.0 % 
Copy CRC A10FC658 
Copy OK 

No errors occurred 

AccurateRip summary 

Track 1 not present in database 
Track 2 not present in database 
Track 3 not present in database 
Track 4 not present in database 
Track 5 not present in database 
Track 6 not present in database 
Track 7 not present in database 
Track 8 not present in database 
Track 9 not present in database 
Track 10 not present in database 
Track 11 not present in database 
Track 12 not present in database 
Track 13 not present in database 
Track 14 not present in database 
Track 15 not present in database 

None of the tracks are present in the AccurateRip database 

End of status report


Download
Category: Alternative | Views: 476 | Added by: Rat | Rating: 0.0/0
Total comments: 0
Only registered users can add comments.
[ Registration | Login ]

«  January 2012  »
SuMoTuWeThFrSa
1234567
891011121314
15161718192021
22232425262728
293031


  • Israel-club.my1.ru


  • Copyright MyCorp © 2017