Thursday, 14.12.2017, 02:13
Welcome Guest | RSS
Main
Registration
Login




Vinyl [7]
Alternative [103]
Jazz [26]
Classic rock [179]
Classical [9]
Hard & Heavy [60]
Mainstream [53]
Hip-Hop [3]
Meditative [11]
New Beats [8]
Progressive [38]
Roots [25]
OST, Campilation [28]
DTS Releases [4]
Dvd Rip [7]
DVD [7]
Lossless HTTP [54]

Rate my site
Total of answers: 17


Total online: 1
Guests: 1
Users: 0

Login form

Main » 2012 » January » 25 » Icehouse - Full Circle (2cd) - 1993
13:22
Icehouse - Full Circle (2cd) - 1993
 
Released December 1993 
Recorded Studio 301 & Paradise Studios 
Genre Rock/New Wave/Electronica 
Length 91:02 
Label Massive 
Producer Iva Davies/Various
 

Quote
Full Circle is a 2CD collection of remixed tracks by Australian rock synthpop band Icehouse released in December 1994 on Massive Records. It also features a variety of musicians including the Bangarra Dance Company, Elcho Island and guitar virtuoso, Buckethead who would later join Guns N' Roses. Disc 1 is subtitled The Revolution Mixes and disc 2 is The Time & Motion Mixes; tracks "Shakin' the Cage", "MLK" and "Dedicated to Glam" as well as an edited version of "The Great Southern Mix" had been released in June 1993 on the Spin One EP.[1][2] "Desdemona" is a cover version of the John's Children single, composed by Marc Bolan.


Disc 1: The Revolution Mixes 
"Shakin' the Cage" (Techno) 
"Colours" 
"Desdemona" 
"Mercy" 
"Yo, Micro Babe" 
"MLK" 
"She Comes" 
"Wild" 
"Dedicated to Glam" 
[edit]Disc 2: The Time & Motion Mixes 
"Melt Steel - Part 1" 
"Slow Motion" 
"Kilimanjaro" 
"Melt Steel - Part 2" 
"Blue Noise" 
"The Great Southern Mix" 
"Melt Steel - Part 3"
 
Code

Exact Audio Copy V1.0 beta 2 from 29. April 2011 

EAC extraction logfile from 24. January 2012, 10:14 

Icehouse / Full Circle - The Revolution Mixes (disc1) 

Used drive  : HL-DT-STDVD-RAM GH22NP20   Adapter: 0  ID: 0 

Read mode               : Secure 
Utilize accurate stream : Yes 
Defeat audio cache      : Yes 
Make use of C2 pointers : No 

Read offset correction                      : 102 
Overread into Lead-In and Lead-Out          : No 
Fill up missing offset samples with silence : Yes 
Delete leading and trailing silent blocks   : No 
Null samples used in CRC calculations       : Yes 
Used interface                    : Installed external ASPI interface 

Used output format : Internal WAV Routines 
Sample format      : 44.100 Hz; 16 Bit; Stereo 

TOC of the extracted CD 

      Track |   Start  |  Length  | Start sector | End sector 
     --------------------------------------------------------- 
         1  |  0:00.00 |  5:01.45 |         0    |    22619 
         2  |  5:01.45 |  6:59.22 |     22620    |    54066 
         3  | 12:00.67 |  4:00.23 |     54067    |    72089 
         4  | 16:01.15 |  3:54.17 |     72090    |    89656 
         5  | 19:55.32 |  6:22.25 |     89657    |   118331 
         6  | 26:17.57 |  5:33.43 |    118332    |   143349 
         7  | 31:51.25 |  5:29.07 |    143350    |   168031 
         8  | 37:20.32 |  6:52.33 |    168032    |   198964 
         9  | 44:12.65 |  4:29.02 |    198965    |   219141 

Range status and errors 

Selected range 

      Filename K:\Documents and Settings\Мои документы\Icehouse - Full Circle.2cd.flac.covers.by.rat.lossless-muz.ucoz.com\cd1\Icehouse - Full Circle - The Revolution Mixes.flac.covers.by.rat.lossless-muz.ucoz.com.cd1.wav 

      Peak level 100.0 % 
      Extraction speed 2.8 X 
      Range quality 100.0 % 
      Copy CRC F1E46DC3 
      Copy OK 

No errors occurred 

AccurateRip summary 

Track  1  cannot be verified as accurate (confidence 7)  [734B4AA7], AccurateRip returned [7A1B0B70]  (AR v2) 
Track  2  cannot be verified as accurate (confidence 7)  [735D1233], AccurateRip returned [9C2CEB06]  (AR v2) 
Track  3  cannot be verified as accurate (confidence 7)  [23FFE387], AccurateRip returned [F9CA9359]  (AR v2) 
Track  4  cannot be verified as accurate (confidence 7)  [0DA296DD], AccurateRip returned [70D2B515]  (AR v2) 
Track  5  cannot be verified as accurate (confidence 7)  [B8F44FE6], AccurateRip returned [89D785BC]  (AR v2) 
Track  6  cannot be verified as accurate (confidence 7)  [AAC1A088], AccurateRip returned [80DF6E61]  (AR v2) 
Track  7  cannot be verified as accurate (confidence 7)  [FF6D7AC9], AccurateRip returned [AF315942]  (AR v2) 
Track  8  cannot be verified as accurate (confidence 7)  [88B71B55], AccurateRip returned [CB6885E0]  (AR v2) 
Track  9  cannot be verified as accurate (confidence 7)  [92F78D25], AccurateRip returned [97BCAAFB]  (AR v2) 

No tracks could be verified as accurate 
You may have a different pressing from the one(s) in the database 

End of status report 

Exact Audio Copy V1.0 beta 2 from 29. April 2011 

EAC extraction logfile from 24. January 2012, 10:39 

Icehouse / Full Circle - The Time & Motion Mixes (disc2) 

Used drive  : HL-DT-STDVD-RAM GH22NP20   Adapter: 0  ID: 0 

Read mode               : Secure 
Utilize accurate stream : Yes 
Defeat audio cache      : Yes 
Make use of C2 pointers : No 

Read offset correction                      : 102 
Overread into Lead-In and Lead-Out          : No 
Fill up missing offset samples with silence : Yes 
Delete leading and trailing silent blocks   : No 
Null samples used in CRC calculations       : Yes 
Used interface                    : Installed external ASPI interface 

Used output format : Internal WAV Routines 
Sample format      : 44.100 Hz; 16 Bit; Stereo 

TOC of the extracted CD 

      Track |   Start  |  Length  | Start sector | End sector 
     --------------------------------------------------------- 
         1  |  0:00.00 |  3:44.55 |         0    |    16854 
         2  |  3:44.55 |  6:12.30 |     16855    |    44784 
         3  |  9:57.10 |  7:15.20 |     44785    |    77429 
         4  | 17:12.30 |  0:42.67 |     77430    |    80646 
         5  | 17:55.22 |  5:59.53 |     80647    |   107624 
         6  | 23:55.00 | 16:02.12 |    107625    |   179786 
         7  | 39:57.12 |  1:02.15 |    179787    |   184451 

Range status and errors 

Selected range 

      Filename K:\Documents and Settings\Мои документы\Icehouse - Full Circle.2cd.flac.covers.by.rat.lossless-muz.ucoz.com\cd2\Icehouse - Full Circle - The Time & Motion Mixes.flac.covers.by.rat.lossless-muz.ucoz.com.cd2.wav 

      Peak level 100.0 % 
      Extraction speed 2.7 X 
      Range quality 100.0 % 
      Copy CRC BA40DA7A 
      Copy OK 

No errors occurred 

AccurateRip summary 

Track  1  cannot be verified as accurate (confidence 7)  [8252EEA5], AccurateRip returned [71DAF5FA]  (AR v2) 
Track  2  cannot be verified as accurate (confidence 7)  [23DF5523], AccurateRip returned [63E5FD97]  (AR v2) 
Track  3  cannot be verified as accurate (confidence 7)  [3F61C598], AccurateRip returned [5CFEEB12]  (AR v2) 
Track  4  cannot be verified as accurate (confidence 7)  [5081CD79], AccurateRip returned [E6805F1F]  (AR v2) 
Track  5  cannot be verified as accurate (confidence 7)  [2E33884F], AccurateRip returned [2366E79A]  (AR v2) 
Track  6  cannot be verified as accurate (confidence 7)  [72AB4E55], AccurateRip returned [CCED57D2]  (AR v2) 
Track  7  cannot be verified as accurate (confidence 7)  [E82ECF7C], AccurateRip returned [D0BC3CD4]  (AR v2) 

No tracks could be verified as accurate 
You may have a different pressing from the one(s) in the database 

End of status report


Download
Category: Mainstream | Views: 520 | Added by: Rat | Rating: 0.0/0
Total comments: 0
Only registered users can add comments.
[ Registration | Login ]

«  January 2012  »
SuMoTuWeThFrSa
1234567
891011121314
15161718192021
22232425262728
293031


  • Israel-club.my1.ru


  • Copyright MyCorp © 2017