Thursday, 14.12.2017, 02:28
Welcome Guest | RSS
Main
Registration
Login




Vinyl [7]
Alternative [103]
Jazz [26]
Classic rock [179]
Classical [9]
Hard & Heavy [60]
Mainstream [53]
Hip-Hop [3]
Meditative [11]
New Beats [8]
Progressive [38]
Roots [25]
OST, Campilation [28]
DTS Releases [4]
Dvd Rip [7]
DVD [7]
Lossless HTTP [54]

Rate my site
Total of answers: 17


Total online: 1
Guests: 1
Users: 0

Login form

Main » 2010 » July » 6 » Icehouse - Flowers (Remastered)(1980.2004)
22:04
Icehouse - Flowers (Remastered)(1980.2004)


Album:Icehouse
Artist: Flowers
Source: Massive
Realease: 1980
Genre: pop/alter/rock/new wave
Quality: eac-ape-covers

Quote
As a huge fan of Icehouse, I was very suprised at the quality of their freshman debut. This is an outstanding album form top to finish. Iva Davies combines the best of various glam and New Wave influences and melds them together by creating crafty incisve pop songs. The band is more raw and heavy on guitar than on Primitive Man, and this actually gives Flowers an edge over its successor. Although the proper album doesn't have that one pure sweet confection like Angel Street or Trojan Blue, every track is a winner and there's no filler, and with the inclusion of the era's b-sides, 'All The Way succeeds in being that gem that always highlighted the later albums.The title track also has to be one of the best post-punk songs ever. A great purchase and worth the high price!

01. Icehouse [0:04:22.55]
02. We Can Get Together [0:03:47.05]
03. Fatman [0:03:52.41]
04. Sister [0:03:23.71]
05. Walls [0:04:22.17]
06. Can't Help Myself [0:03:10.00]
07. Skin [0:02:44.27]
08. Sons [0:04:32.42]
09. Boulevarde [0:03:11.53]
10. Nothing To Do [0:03:20.44]
11. Not My Kind [0:03:35.50]
12. Send Somebody [0:03:41.68]
13. All The Way [0:03:50.00]
14. Paradise Lost (Instrumental) [0:05:52.59]
15. Love In Motion (Original Single Mix) [0:03:40.68]
16. Goodnight, Mr. Matthews (B-Side to 'Love In Motion') [0:04:21.08]
17. Can't Help Myself (Original 10" Single Mix) [0:03:41.19]

Code
Exact Audio Copy V0.99 prebeta 3 from 28. July 2007

EAC extraction logfile from 7. October 2008, 21:51

Icehouse / Flowers (Remastered)

Used drive  : Optiarc DVD RW AD-7170A   Adapter: 1  ID: 0

Read mode               : Secure
Utilize accurate stream : Yes
Defeat audio cache      : Yes
Make use of C2 pointers : No

Read offset correction                      : 48
Overread into Lead-In and Lead-Out          : No
Fill up missing offset samples with silence : Yes
Delete leading and trailing silent blocks   : No
Null samples used in CRC calculations       : Yes
Used interface                    : Installed external ASPI interface

Used output format : Internal WAV Routines
Sample format      : 44.100 Hz; 16 Bit; Stereo

TOC of the extracted CD

       Track |   Start  |  Length  | Start sector | End sector   
      ---------------------------------------------------------
          1  |  0:00.00 |  4:22.55 |         0    |    19704     
          2  |  4:22.55 |  3:47.05 |     19705    |    36734     
          3  |  8:09.60 |  3:52.41 |     36735    |    54175     
          4  | 12:02.26 |  3:23.71 |     54176    |    69471     
          5  | 15:26.22 |  4:22.17 |     69472    |    89138     
          6  | 19:48.39 |  3:10.00 |     89139    |   103388     
          7  | 22:58.39 |  2:44.27 |    103389    |   115715     
          8  | 25:42.66 |  4:32.42 |    115716    |   136157     
          9  | 30:15.33 |  3:11.53 |    136158    |   150535     
         10  | 33:27.11 |  3:20.44 |    150536    |   165579     
         11  | 36:47.55 |  3:35.50 |    165580    |   181754     
         12  | 40:23.30 |  3:41.68 |    181755    |   198397     
         13  | 44:05.23 |  3:50.00 |    198398    |   215647     
         14  | 47:55.23 |  5:52.59 |    215648    |   242106     
         15  | 53:48.07 |  3:40.68 |    242107    |   258674     
         16  | 57:29.00 |  4:21.08 |    258675    |   278257     
         17  | 61:50.08 |  3:41.19 |    278258    |   294851     

Range status and errors

Selected range

       Filename C:\Icehouse - Flowers.Remastered.by.rat.eac.ape.covers.Israel-club.my1.ru\Icehouse - Flowers.Remastered.by.rat.eac.ape.covers.Israel-club.my1.ru.wav

       Peak level 94.4 %
       Range quality 100.0 %
       Copy CRC 5215A2A5
       Copy OK

No errors occurred

End of status report

My WebPage

Category: Alternative | Views: 308 | Added by: Rat | Rating: 0.0/0
Total comments: 0
Only registered users can add comments.
[ Registration | Login ]

«  July 2010  »
SuMoTuWeThFrSa
    123
45678910
11121314151617
18192021222324
25262728293031


  • Israel-club.my1.ru


  • Copyright MyCorp © 2017