Sunday, 20.08.2017, 19:19
Welcome Guest | RSS
Main
Registration
Login




Vinyl [7]
Alternative [103]
Jazz [26]
Classic rock [179]
Classical [9]
Hard & Heavy [60]
Mainstream [53]
Hip-Hop [3]
Meditative [11]
New Beats [8]
Progressive [38]
Roots [25]
OST, Campilation [28]
DTS Releases [4]
Dvd Rip [7]
DVD [7]
Lossless HTTP [54]

Rate my site
Total of answers: 17


Total online: 1
Guests: 1
Users: 0

Login form

Main » 2010 » February » 11 » Ian Gillan - One Eye To Morocco (2009)
02:05
Ian Gillan - One Eye To Morocco (2009)

 
# Audio CD: Ian Gillan - One Eye To Morocco
# Original Release Date: March 31, 2009
# Genre: Classic rock
# Label: Eagle Records
# Format: eac-ape

Quote
I am a huge DP fan and have been for many years,with that being said this does not sound like DP at all but really brings out Ian's personality more than anything I have ever heard. My brother has never been a DP fan and did not even know who Ian Gillan was but I let him listen to it yesterday and he loves it.Too bad radio will not give other people a chance to hear this one it is great and if given the publicity I believe would be a huge hit ,it is deffinately my fave of all of Gillan's non DP material and better than anything he has done in DP in the last few years ,not downing the DP stuff because they still rock after 40 years but this is the best cd I have bought in a long time.



01. One Eye To Morocco [0:04:05.47]
02. No Lotion For That [0:03:11.03]
03. Don't Stop [0:02:35.30]
04. Change My Ways [0:03:26.23]
05. Girl Goes To Show [0:03:59.66]
06. Better Days [0:04:07.72]
07. Deal With It [0:03:44.35]
08. Ultimate Groove [0:03:48.41]
09. The Sky Is Falling Down [0:04:09.41]
10. Texas State Of Mind [0:03:47.67]
11. Lonely Days Lonely Nights [0:02:41.47]
12. It Would Be Nice [0:03:08.10]
13. Always The Traveller [0:03:17.62]

Code
Exact Audio Copy V0.99 prebeta 4 from 23. January 2008

EAC extraction logfile from 5. May 2009, 22:33

Ian Gillan / One Eye To Morocco

Used drive : Optiarc DVD RW AD-7170A Adapter: 3 ID: 0

Read mode : Secure
Utilize accurate stream : Yes
Defeat audio cache : Yes
Make use of C2 pointers : No

Read offset correction : 48
Overread into Lead-In and Lead-Out : No
Fill up missing offset samples with silence : Yes
Delete leading and trailing silent blocks : No
Null samples used in CRC calculations : Yes
Used interface : Installed external ASPI interface

Used output format : Internal WAV Routines
Sample format : 44.100 Hz; 16 Bit; Stereo

TOC of the extracted CD

Track | Start | Length | Start sector | End sector
---------------------------------------------------------
1 | 0:00.00 | 4:05.47 | 0 | 18421
2 | 4:05.47 | 3:11.03 | 18422 | 32749
3 | 7:16.50 | 2:35.30 | 32750 | 44404
4 | 9:52.05 | 3:26.23 | 44405 | 59877
5 | 13:18.28 | 3:59.66 | 59878 | 77868
6 | 17:18.19 | 4:07.72 | 77869 | 96465
7 | 21:26.16 | 3:44.35 | 96466 | 113300
8 | 25:10.51 | 3:48.41 | 113301 | 130441
9 | 28:59.17 | 4:09.41 | 130442 | 149157
10 | 33:08.58 | 3:47.67 | 149158 | 166249
11 | 36:56.50 | 2:41.47 | 166250 | 178371
12 | 39:38.22 | 3:08.10 | 178372 | 192481
13 | 42:46.32 | 3:17.62 | 192482 | 207318

Range status and errors

Selected range

Filename C:\Documents and Settings\Мои документы\Ian Gillan - One Eye To Morocco.by.rat.eac.ape.covers.Israel-club.my1.ru\Ian Gillan - One Eye To Morocco.by.rat.eac.ape.covers.Israel-club.my1.ru.wav

Peak level 98.8 %
Range quality 100.0 %
Copy CRC 75219629
Copy OK

No errors occurred

End of status report



My WebPage
Category: Classic rock | Views: 393 | Added by: Rat | Rating: 0.0/0
Total comments: 0
Only registered users can add comments.
[ Registration | Login ]

«  February 2010  »
SuMoTuWeThFrSa
 123456
78910111213
14151617181920
21222324252627
28


  • Israel-club.my1.ru


  • Copyright MyCorp © 2017